المساعد الشخصي الرقمي

مشاهدة النسخة كاملة : مدبلج للعربيه Smurfs The Lost Village 2017 BluRay / BDRip { 1080p / 720p } AC3 5.1 Dual-Audio


Admin
07-09-2017, 05:39 PM
Smurfs The Lost Village 2017

مدبلج للعربيه الفصحى
صوت اصلى من اسطوانه الدى فى دى

فقط للاعضاء المسجلين يمكنهم رؤية الروابط (فقط للاعضاء المسجلين يمكنهم رؤية الروابط)


فقط للاعضاء المسجلين يمكنهم رؤية الروابط (فقط للاعضاء المسجلين يمكنهم رؤية الروابط)


Complete name : Smurfs.The.Lost.Village.(2017).BluRay.1080p.x264.D ual-Audio-by.Rosum.mkv
Format : Matroska
Format version : Version 4 / Version 2
File size : 9.37 GiB
Duration : 1h 29mn
Overall bit rate mode : Variable
Overall bit rate : 14.9 Mbps
Movie name : Smurfs: The Lost Village { 2017 } - Release for "Rosum@fb.com/hdfilm.arabic"
Encoded date : UTC 2017-07-06 09:11:00
Writing application : mkvmerge v6.3.0 ('You can't stop me!') built on Jun 28 2013 20:09:41
Writing library : libebml v1.3.0 + libmatroska v1.4.0

Video
ID : 1
Format : AVC
Format/Info : Advanced Video Codec
Format profile : High@L4.1
Format settings, CABAC : Yes
Format settings, ReFrames : 4 frames
Codec ID : V_MPEG4/ISO/AVC
Duration : 1h 29mn
Width : 1 920 pixels
Height : 1 080 pixels
Display aspect ratio : 16:9
Frame rate mode : Constant
Frame rate : 23.976 fps
Color space : YUV
Chroma subsampling : 4:2:0
Bit depth : 8 bits
Scan type : Progressive
Title : Exclusive Release "Rosum" HD4arab.com
Writing library : x264 core 148 r2708 86b7198
Encoding settings : cabac=1 / ref=4 / deblock=1:1:1 / analyse=0x3:0x113 / me=hex / subme=6 / psy=1 / psy_rd=0.40:0.00 / mixed_ref=1 / me_range=16 / chroma_me=1 / trellis=1 / 8x8dct=1 / cqm=0 / deadzone=21,11 / fast_pskip=1 / chroma_qp_offset=-2 / threads=34 / lookahead_threads=5 / sliced_threads=0 / nr=0 / decimate=1 / interlaced=0 / bluray_compat=0 / constrained_intra=0 / bframes=5 / b_pyramid=2 / b_adapt=1 / b_bias=0 / direct=1 / weightb=1 / open_gop=0 / weightp=1 / keyint=240 / keyint_min=24 / scenecut=40 / intra_refresh=0 / rc_lookahead=30 / rc=crf / mbtree=1 / crf=15.0 / qcomp=0.60 / qpmin=0 / qpmax=69 / qpstep=4 / vbv_maxrate=62500 / vbv_bufsize=78125 / crf_max=0.0 / nal_hrd=none / filler=0 / ip_ratio=1.40 / aq=1:0.60
Language : English
Default : No
Forced : No
Color primaries : BT.709
Transfer characteristics : BT.709
Matrix coefficients : BT.709

Audio #1
ID : 2
Format : AC-3
Format/Info : Audio Coding 3
Mode extension : CM (complete main)
Format settings, Endianness : Big
Codec ID : A_AC3
Duration : 1h 29mn
Bit rate mode : Constant
Bit rate : 384 Kbps
Channel(s) : 6 channels
Channel positions : Front: L C R, Side: L R, LFE
Sampling rate : 48.0 KHz
Bit depth : 16 bits
Compression mode : Lossy
Delay relative to video : 24ms
Stream size : 247 MiB (3%)
Title : Arabic, Original DVD, AC3, 5.1 ch, 384 kbps, 48.0 KHz
Language : Arabic
Default : Yes
Forced : No

Audio #2
ID : 3
Format : DTS
Format/Info : Digital Theater Systems
Format profile : MA / Core
Mode : 16
Format settings, Endianness : Big
Codec ID : A_DTS
Duration : 1h 29mn
Bit rate mode : Variable
Bit rate : Unknown / 1 509 Kbps
Channel(s) : 6 channels
Channel positions : Front: L C R, Side: L R, LFE
Sampling rate : 48.0 KHz
Bit depth : 16 bits
Compression mode : Lossless / Lossy
Title : English Master, Original BluRay, DTS, 5.1 ch, 1509 Kbps, 48.0 KHz
Language : English
Default : No
Forced : No

Text #1
ID : 4
Format : UTF-8
Codec ID : S_TEXT/UTF8
Codec ID/Info : UTF-8 Plain Text
Title : Arabic, Professional SRT
Language : Arabic
Default : No
Forced : No

Text #2
ID : 5
Format : PGS
Muxing mode : zlib
Codec ID : S_HDMV/PGS
Codec ID/Info : The same subtitle format used on BDs/HD-DVDs
Title : English Original BluRay PGS
Language : English
Default : No
Forced : No

Text #3
ID : 6
Format : PGS
Muxing mode : zlib
Codec ID : S_HDMV/PGS
Codec ID/Info : The same subtitle format used on BDs/HD-DVDs
Title : English Original BluRay PGS
Language : English
Default : No
Forced : No

Menu
00:00:00.000 : :HD4arab.com / Rosum Movies / BluRay 3D Arabic
00:08:48.111 : :HD4arab.com / Rosum Movies / BluRay 3D Arabic
00:11:03.413 : :HD4arab.com / Rosum Movies / BluRay 3D Arabic
00:14:33.748 : :HD4arab.com / Rosum Movies / BluRay 3D Arabic
00:21:20.738 : :HD4arab.com / Rosum Movies / BluRay 3D Arabic
00:27:24.977 : :HD4arab.com / Rosum Movies / BluRay 3D Arabic
00:30:33.707 : :HD4arab.com / Rosum Movies / BluRay 3D Arabic
00:36:49.082 : :HD4arab.com / Rosum Movies / BluRay 3D Arabic
00:42:41.434 : :HD4arab.com / Rosum Movies / BluRay 3D Arabic
00:45:58.673 : :HD4arab.com / Rosum Movies / BluRay 3D Arabic
00:50:35.950 : :HD4arab.com / Rosum Movies / BluRay 3D Arabic
00:55:41.964 : :HD4arab.com / Rosum Movies / BluRay 3D Arabic
00:57:03.337 : :HD4arab.com / Rosum Movies / BluRay 3D Arabic
01:02:35.252 : :HD4arab.com / Rosum Movies / BluRay 3D Arabic
01:09:07.769 : :HD4arab.com / Rosum Movies / BluRay 3D Arabic
01:14:39.475 : :HD4arab.com / Rosum Movies / BluRay 3D Arabic
01:19:34.228 : :HD4arab.com / Rosum Movies / BluRay 3D Arabic
فقط للاعضاء المسجلين يمكنهم رؤية الروابط (فقط للاعضاء المسجلين يمكنهم رؤية الروابط)

فقط للاعضاء المسجلين يمكنهم رؤية الروابط (فقط للاعضاء المسجلين يمكنهم رؤية الروابط)فقط للاعضاء المسجلين يمكنهم رؤية الروابط (فقط للاعضاء المسجلين يمكنهم رؤية الروابط)
فقط للاعضاء المسجلين يمكنهم رؤية الروابط (فقط للاعضاء المسجلين يمكنهم رؤية الروابط)فقط للاعضاء المسجلين يمكنهم رؤية الروابط (فقط للاعضاء المسجلين يمكنهم رؤية الروابط)
فقط للاعضاء المسجلين يمكنهم رؤية الروابط (فقط للاعضاء المسجلين يمكنهم رؤية الروابط)

فقط للاعضاء المسجلين يمكنهم رؤية الروابط (فقط للاعضاء المسجلين يمكنهم رؤية الروابط)

فقط للاعضاء المسجلين يمكنهم رؤية الروابط (فقط للاعضاء المسجلين يمكنهم رؤية الروابط)


Complete name : Smurfs.The.Lost.Village.(2017).BluRay.720p.x264.Du al-Audio-by.Rosum.mkv
Format : Matroska
Format version : Version 4 / Version 2
File size : 4.33 GiB
Duration : 1h 29mn
Overall bit rate mode : Variable
Overall bit rate : 6 898 Kbps
Movie name : Smurfs: The Lost Village { 2017 } - Release for "Rosum@fb.com/hdfilm.arabic"
Encoded date : UTC 2017-07-06 08:12:34
Writing application : mkvmerge v6.3.0 ('You can't stop me!') built on Jun 28 2013 20:09:41
Writing library : libebml v1.3.0 + libmatroska v1.4.0

Video
ID : 1
Format : AVC
Format/Info : Advanced Video Codec
Format profile : High@L4.1
Format settings, CABAC : Yes
Format settings, ReFrames : 4 frames
Codec ID : V_MPEG4/ISO/AVC
Duration : 1h 29mn
Width : 1 280 pixels
Height : 720 pixels
Display aspect ratio : 16:9
Frame rate mode : Constant
Frame rate : 23.976 fps
Color space : YUV
Chroma subsampling : 4:2:0
Bit depth : 8 bits
Scan type : Progressive
Title : Exclusive Release "Rosum" HD4arab.com
Writing library : x264 core 148 r2708 86b7198
Encoding settings : cabac=1 / ref=4 / deblock=1:1:1 / analyse=0x3:0x113 / me=hex / subme=6 / psy=1 / psy_rd=0.40:0.00 / mixed_ref=1 / me_range=16 / chroma_me=1 / trellis=1 / 8x8dct=1 / cqm=0 / deadzone=21,11 / fast_pskip=1 / chroma_qp_offset=-2 / threads=22 / lookahead_threads=3 / sliced_threads=0 / nr=0 / decimate=1 / interlaced=0 / bluray_compat=0 / constrained_intra=0 / bframes=5 / b_pyramid=2 / b_adapt=1 / b_bias=0 / direct=1 / weightb=1 / open_gop=0 / weightp=1 / keyint=240 / keyint_min=24 / scenecut=40 / intra_refresh=0 / rc_lookahead=30 / rc=crf / mbtree=1 / crf=17.0 / qcomp=0.60 / qpmin=0 / qpmax=69 / qpstep=4 / vbv_maxrate=62500 / vbv_bufsize=78125 / crf_max=0.0 / nal_hrd=none / filler=0 / ip_ratio=1.40 / aq=1:0.60
Language : English
Default : No
Forced : No
Color primaries : BT.709
Transfer characteristics : BT.709
Matrix coefficients : BT.709

Audio #1
ID : 2
Format : AC-3
Format/Info : Audio Coding 3
Mode extension : CM (complete main)
Format settings, Endianness : Big
Codec ID : A_AC3
Duration : 1h 29mn
Bit rate mode : Constant
Bit rate : 384 Kbps
Channel(s) : 6 channels
Channel positions : Front: L C R, Side: L R, LFE
Sampling rate : 48.0 KHz
Bit depth : 16 bits
Compression mode : Lossy
Delay relative to video : 24ms
Stream size : 247 MiB (6%)
Title : Arabic, Original DVD, AC3, 5.1 ch, 384 kbps, 48.0 KHz
Language : Arabic
Default : Yes
Forced : No

Audio #2
ID : 3
Format : DTS
Format/Info : Digital Theater Systems
Format profile : MA / Core
Mode : 16
Format settings, Endianness : Big
Codec ID : A_DTS
Duration : 1h 29mn
Bit rate mode : Variable
Bit rate : Unknown / 1 509 Kbps
Channel(s) : 6 channels
Channel positions : Front: L C R, Side: L R, LFE
Sampling rate : 48.0 KHz
Bit depth : 16 bits
Compression mode : Lossless / Lossy
Title : English Master, Original BluRay, DTS, 5.1 ch, 1509 Kbps, 48.0 KHz
Language : English
Default : No
Forced : No

Text #1
ID : 4
Format : UTF-8
Codec ID : S_TEXT/UTF8
Codec ID/Info : UTF-8 Plain Text
Title : Arabic, Professional SRT
Language : Arabic
Default : No
Forced : No

Text #2
ID : 5
Format : PGS
Muxing mode : zlib
Codec ID : S_HDMV/PGS
Codec ID/Info : The same subtitle format used on BDs/HD-DVDs
Title : English Original BluRay PGS
Language : English
Default : No
Forced : No

Text #3
ID : 6
Format : PGS
Muxing mode : zlib
Codec ID : S_HDMV/PGS
Codec ID/Info : The same subtitle format used on BDs/HD-DVDs
Title : English Original BluRay PGS
Language : English
Default : No
Forced : No

Menu
00:00:00.000 : :HD4arab.com / Rosum Movies / BluRay 3D Arabic
00:08:48.111 : :HD4arab.com / Rosum Movies / BluRay 3D Arabic
00:11:03.413 : :HD4arab.com / Rosum Movies / BluRay 3D Arabic
00:14:33.748 : :HD4arab.com / Rosum Movies / BluRay 3D Arabic
00:21:20.738 : :HD4arab.com / Rosum Movies / BluRay 3D Arabic
00:27:24.977 : :HD4arab.com / Rosum Movies / BluRay 3D Arabic
00:30:33.707 : :HD4arab.com / Rosum Movies / BluRay 3D Arabic
00:36:49.082 : :HD4arab.com / Rosum Movies / BluRay 3D Arabic
00:42:41.434 : :HD4arab.com / Rosum Movies / BluRay 3D Arabic
00:45:58.673 : :HD4arab.com / Rosum Movies / BluRay 3D Arabic
00:50:35.950 : :HD4arab.com / Rosum Movies / BluRay 3D Arabic
00:55:41.964 : :HD4arab.com / Rosum Movies / BluRay 3D Arabic
00:57:03.337 : :HD4arab.com / Rosum Movies / BluRay 3D Arabic
01:02:35.252 : :HD4arab.com / Rosum Movies / BluRay 3D Arabic
01:09:07.769 : :HD4arab.com / Rosum Movies / BluRay 3D Arabic
01:14:39.475 : :HD4arab.com / Rosum Movies / BluRay 3D Arabic
01:19:34.228 : :HD4arab.com / Rosum Movies / BluRay 3D Arabic
فقط للاعضاء المسجلين يمكنهم رؤية الروابط (فقط للاعضاء المسجلين يمكنهم رؤية الروابط)

فقط للاعضاء المسجلين يمكنهم رؤية الروابط (فقط للاعضاء المسجلين يمكنهم رؤية الروابط)فقط للاعضاء المسجلين يمكنهم رؤية الروابط (فقط للاعضاء المسجلين يمكنهم رؤية الروابط)
فقط للاعضاء المسجلين يمكنهم رؤية الروابط (فقط للاعضاء المسجلين يمكنهم رؤية الروابط)فقط للاعضاء المسجلين يمكنهم رؤية الروابط (فقط للاعضاء المسجلين يمكنهم رؤية الروابط)
فقط للاعضاء المسجلين يمكنهم رؤية الروابط (فقط للاعضاء المسجلين يمكنهم رؤية الروابط)

فقط للاعضاء المسجلين يمكنهم رؤية الروابط (فقط للاعضاء المسجلين يمكنهم رؤية الروابط)

فقط للاعضاء المسجلين يمكنهم رؤية الروابط (فقط للاعضاء المسجلين يمكنهم رؤية الروابط)


Complete name : Smurfs.The.Lost.Village.(2017).BDRip.1080p.x264.Du al-Audio-by.Rosum.mkv
Format : Matroska
Format version : Version 4 / Version 2
File size : 2.43 GiB
Duration : 1h 29mn
Overall bit rate : 3 882 Kbps
Movie name : Smurfs: The Lost Village { 2017 } - Release for "Rosum@fb.com/hdfilm.arabic"
Encoded date : UTC 2017-07-06 07:08:41
Writing application : mkvmerge v6.3.0 ('You can't stop me!') built on Jun 28 2013 20:09:41
Writing library : libebml v1.3.0 + libmatroska v1.4.0

Video
ID : 1
Format : AVC
Format/Info : Advanced Video Codec
Format profile : High@L4.1
Format settings, CABAC : Yes
Format settings, ReFrames : 4 frames
Codec ID : V_MPEG4/ISO/AVC
Duration : 1h 29mn
Bit rate : 2 781 Kbps
Width : 1 920 pixels
Height : 1 080 pixels
Display aspect ratio : 16:9
Frame rate mode : Constant
Frame rate : 23.976 fps
Color space : YUV
Chroma subsampling : 4:2:0
Bit depth : 8 bits
Scan type : Progressive
Bits/(Pixel*Frame) : 0.056
Stream size : 1.74 GiB (72%)
Writing library : x264 core 148 r2708 86b7198
Encoding settings : cabac=1 / ref=4 / deblock=1:1:1 / analyse=0x3:0x113 / me=hex / subme=6 / psy=1 / psy_rd=0.40:0.00 / mixed_ref=1 / me_range=16 / chroma_me=1 / trellis=1 / 8x8dct=1 / cqm=0 / deadzone=21,11 / fast_pskip=1 / chroma_qp_offset=-2 / threads=34 / lookahead_threads=5 / sliced_threads=0 / nr=0 / decimate=1 / interlaced=0 / bluray_compat=0 / constrained_intra=0 / bframes=5 / b_pyramid=2 / b_adapt=1 / b_bias=0 / direct=1 / weightb=1 / open_gop=0 / weightp=1 / keyint=240 / keyint_min=24 / scenecut=40 / intra_refresh=0 / rc_lookahead=30 / rc=crf / mbtree=1 / crf=25.0 / qcomp=0.60 / qpmin=0 / qpmax=69 / qpstep=4 / vbv_maxrate=62500 / vbv_bufsize=78125 / crf_max=0.0 / nal_hrd=none / filler=0 / ip_ratio=1.40 / aq=1:0.60
Language : English
Default : No
Forced : No
Color primaries : BT.709
Transfer characteristics : BT.709
Matrix coefficients : BT.709

Audio #1
ID : 2
Format : AC-3
Format/Info : Audio Coding 3
Mode extension : CM (complete main)
Format settings, Endianness : Big
Codec ID : A_AC3
Duration : 1h 29mn
Bit rate mode : Constant
Bit rate : 384 Kbps
Channel(s) : 6 channels
Channel positions : Front: L C R, Side: L R, LFE
Sampling rate : 48.0 KHz
Bit depth : 16 bits
Compression mode : Lossy
Delay relative to video : 19ms
Stream size : 247 MiB (10%)
Title : Arabic, Original DVD, AC3, 5.1 ch, 384 kbps, 48.0 KHz
Language : Arabic
Default : Yes
Forced : No

Audio #2
ID : 3
Format : AC-3
Format/Info : Audio Coding 3
Mode extension : CM (complete main)
Format settings, Endianness : Big
Codec ID : A_AC3
Duration : 1h 29mn
Bit rate mode : Constant
Bit rate : 640 Kbps
Channel(s) : 6 channels
Channel positions : Front: L C R, Side: L R, LFE
Sampling rate : 48.0 KHz
Bit depth : 16 bits
Compression mode : Lossy
Delay relative to video : -5ms
Stream size : 411 MiB (16%)
Title : English, Original BluRay, AC3, 5.1 ch, 640 kbps, 48.0 KHz
Language : English
Default : No
Forced : No

Text #1
ID : 4
Format : UTF-8
Codec ID : S_TEXT/UTF8
Codec ID/Info : UTF-8 Plain Text
Title : Arabic, Professional SRT
Language : Arabic
Default : No
Forced : No

Text #2
ID : 5
Format : PGS
Muxing mode : zlib
Codec ID : S_HDMV/PGS
Codec ID/Info : The same subtitle format used on BDs/HD-DVDs
Title : English Original BluRay PGS
Language : English
Default : No
Forced : No

Text #3
ID : 6
Format : PGS
Muxing mode : zlib
Codec ID : S_HDMV/PGS
Codec ID/Info : The same subtitle format used on BDs/HD-DVDs
Title : English Original BluRay PGS
Language : English
Default : No
Forced : No

Menu
00:00:00.000 : :HD4arab.com / Rosum Movies / BluRay 3D Arabic
00:08:48.111 : :HD4arab.com / Rosum Movies / BluRay 3D Arabic
00:11:03.413 : :HD4arab.com / Rosum Movies / BluRay 3D Arabic
00:14:33.748 : :HD4arab.com / Rosum Movies / BluRay 3D Arabic
00:21:20.738 : :HD4arab.com / Rosum Movies / BluRay 3D Arabic
00:27:24.977 : :HD4arab.com / Rosum Movies / BluRay 3D Arabic
00:30:33.707 : :HD4arab.com / Rosum Movies / BluRay 3D Arabic
00:36:49.082 : :HD4arab.com / Rosum Movies / BluRay 3D Arabic
00:42:41.434 : :HD4arab.com / Rosum Movies / BluRay 3D Arabic
00:45:58.673 : :HD4arab.com / Rosum Movies / BluRay 3D Arabic
00:50:35.950 : :HD4arab.com / Rosum Movies / BluRay 3D Arabic
00:55:41.964 : :HD4arab.com / Rosum Movies / BluRay 3D Arabic
00:57:03.337 : :HD4arab.com / Rosum Movies / BluRay 3D Arabic
01:02:35.252 : :HD4arab.com / Rosum Movies / BluRay 3D Arabic
01:09:07.769 : :HD4arab.com / Rosum Movies / BluRay 3D Arabic
01:14:39.475 : :HD4arab.com / Rosum Movies / BluRay 3D Arabic
01:19:34.228 : :HD4arab.com / Rosum Movies / BluRay 3D Arabic
فقط للاعضاء المسجلين يمكنهم رؤية الروابط (فقط للاعضاء المسجلين يمكنهم رؤية الروابط)

فقط للاعضاء المسجلين يمكنهم رؤية الروابط (فقط للاعضاء المسجلين يمكنهم رؤية الروابط)فقط للاعضاء المسجلين يمكنهم رؤية الروابط (فقط للاعضاء المسجلين يمكنهم رؤية الروابط)
فقط للاعضاء المسجلين يمكنهم رؤية الروابط (فقط للاعضاء المسجلين يمكنهم رؤية الروابط)فقط للاعضاء المسجلين يمكنهم رؤية الروابط (فقط للاعضاء المسجلين يمكنهم رؤية الروابط)
فقط للاعضاء المسجلين يمكنهم رؤية الروابط (فقط للاعضاء المسجلين يمكنهم رؤية الروابط)

مشاهدة اون لاين

WIDTH=650 HEIGHT=400

مشاهدة اون لاين

WIDTH=650 HEIGHT=400
فقط للاعضاء المسجلين يمكنهم رؤية الروابط (فقط للاعضاء المسجلين يمكنهم رؤية الروابط)

فقط للاعضاء المسجلين يمكنهم رؤية الروابط (فقط للاعضاء المسجلين يمكنهم رؤية الروابط)

file-upload
فقط للاعضاء المسجلين يمكنهم رؤية الروابط
فقط للاعضاء المسجلين يمكنهم رؤية الروابط
فقط للاعضاء المسجلين يمكنهم رؤية الروابط
فقط للاعضاء المسجلين يمكنهم رؤية الروابط
فقط للاعضاء المسجلين يمكنهم رؤية الروابط
فقط للاعضاء المسجلين يمكنهم رؤية الروابط
فقط للاعضاء المسجلين يمكنهم رؤية الروابط
فقط للاعضاء المسجلين يمكنهم رؤية الروابط
فقط للاعضاء المسجلين يمكنهم رؤية الروابط
فقط للاعضاء المسجلين يمكنهم رؤية الروابط

فقط للاعضاء المسجلين يمكنهم رؤية الروابط (فقط للاعضاء المسجلين يمكنهم رؤية الروابط)

file-upload
فقط للاعضاء المسجلين يمكنهم رؤية الروابط
فقط للاعضاء المسجلين يمكنهم رؤية الروابط
فقط للاعضاء المسجلين يمكنهم رؤية الروابط
فقط للاعضاء المسجلين يمكنهم رؤية الروابط
فقط للاعضاء المسجلين يمكنهم رؤية الروابط

فقط للاعضاء المسجلين يمكنهم رؤية الروابط (فقط للاعضاء المسجلين يمكنهم رؤية الروابط)

uptobox
فقط للاعضاء المسجلين يمكنهم رؤية الروابط
فقط للاعضاء المسجلين يمكنهم رؤية الروابط
فقط للاعضاء المسجلين يمكنهم رؤية الروابط


:):):)

بحب الانمى
07-09-2017, 06:14 PM
تسلم على الفيلم ياباشا

hamzamix
07-09-2017, 06:24 PM
تسلم

dodo_goast
07-09-2017, 06:36 PM
تسلم يا غالى , ولكن اين باقي روابط الـ Uptobox ؟

Conanlove
07-10-2017, 04:56 PM
تسلم ايدك

fwwazm
07-10-2017, 05:59 PM
شكرا جزيلا

Seif
07-11-2017, 09:26 AM
سلمت الايادي

yusufsafe10
07-11-2017, 10:38 AM
thank u for good effort

AS007
07-19-2017, 05:50 AM
شكرا ياباشا انا بدأت انزل في النسخة ال1080p
من يوم ما سيبت dvd4arab وانا اول مرة انزل فيلم من النت ��
منهم لله بتوع ياهوو