المساعد الشخصي الرقمي

مشاهدة النسخة كاملة : مدبلج للعربيه :: Zapped 2014 HDTV { 1080p / 720p } AC3 2.0 Dual-Audio


Admin
03-02-2017, 06:59 PM
Zapped
مدبلج للعاميه المصريه

فقط للاعضاء المسجلين يمكنهم رؤية الروابط (فقط للاعضاء المسجلين يمكنهم رؤية الروابط)

فقط للاعضاء المسجلين يمكنهم رؤية الروابط (فقط للاعضاء المسجلين يمكنهم رؤية الروابط)


Complete name : Zapped.(2014).HDTV.1080p.x264.Dual-Audio-by.Rosum.mkv
Format : Matroska
Format version : Version 4 / Version 2
File size : 4.45 GiB
Duration : 1h 29mn
Overall bit rate : 7 098 Kbps
Movie name : Zapped { 2014 } - Release for "Rosum@fb.com/hdfilm.arabic"
Encoded date : UTC 2017-01-17 18:05:41
Writing application : mkvmerge v6.3.0 ('You can't stop me!') built on Jun 28 2013 20:09:41
Writing library : libebml v1.3.0 + libmatroska v1.4.0

Video
ID : 1
Format : AVC
Format/Info : Advanced Video Codec
Format profile : High@L4.1
Format settings, CABAC : Yes
Format settings, ReFrames : 4 frames
Codec ID : V_MPEG4/ISO/AVC
Duration : 1h 29mn
Bit rate : 6 380 Kbps
Width : 1 920 pixels
Height : 1 080 pixels
Display aspect ratio : 16:9
Frame rate : 25.000 fps
Color space : YUV
Chroma subsampling : 4:2:0
Bit depth : 8 bits
Scan type : Progressive
Bits/(Pixel*Frame) : 0.123
Stream size : 4.00 GiB (90%)
Title : Exclusive Release "Rosum" HD4arab.com
Writing library : x264 core 148 r2665 a01e339
Encoding settings : cabac=1 / ref=4 / deblock=1:-3:-3 / analyse=0x3:0x133 / me=umh / subme=8 / psy=1 / psy_rd=1.00:0.15 / mixed_ref=1 / me_range=16 / chroma_me=1 / trellis=1 / 8x8dct=1 / cqm=0 / deadzone=21,11 / fast_pskip=0 / chroma_qp_offset=-3 / threads=12 / lookahead_threads=2 / sliced_threads=0 / nr=0 / decimate=1 / interlaced=0 / bluray_compat=0 / constrained_intra=0 / bframes=3 / b_pyramid=2 / b_adapt=2 / b_bias=0 / direct=3 / weightb=1 / open_gop=0 / weightp=2 / keyint=240 / keyint_min=24 / scenecut=40 / intra_refresh=0 / rc_lookahead=50 / rc=crf / mbtree=1 / crf=19.0 / qcomp=0.60 / qpmin=0 / qpmax=69 / qpstep=4 / ip_ratio=1.40 / aq=1:1.00
Language : English
Default : No
Forced : No

Audio #1
ID : 2
Format : AC-3
Format/Info : Audio Coding 3
Mode extension : CM (complete main)
Format settings, Endianness : Big
Codec ID : A_AC3
Duration : 1h 29mn
Bit rate mode : Constant
Bit rate : 192 Kbps
Channel(s) : 2 channels
Channel positions : Front: L R
Sampling rate : 48.0 KHz
Bit depth : 16 bits
Compression mode : Lossy
Stream size : 123 MiB (3%)
Title : Arabic, Original DVD, AC3, 2.0 ch, 192 kbps, 48.0 KHz
Language : Arabic
Default : Yes
Forced : No

Audio #2
ID : 3
Format : AC-3
Format/Info : Audio Coding 3
Mode extension : CM (complete main)
Format settings, Endianness : Big
Codec ID : A_AC3
Duration : 1h 29mn
Bit rate mode : Constant
Bit rate : 384 Kbps
Channel(s) : 2 channels
Channel positions : Front: L R
Sampling rate : 48.0 KHz
Bit depth : 16 bits
Compression mode : Lossy
Stream size : 247 MiB (5%)
Title : English, Original DVD, AC3, 2.0 ch, 384 kbps, 48.0 KHz
Language : English
Default : No
Forced : No
فقط للاعضاء المسجلين يمكنهم رؤية الروابط (فقط للاعضاء المسجلين يمكنهم رؤية الروابط)

فقط للاعضاء المسجلين يمكنهم رؤية الروابط (فقط للاعضاء المسجلين يمكنهم رؤية الروابط)

فقط للاعضاء المسجلين يمكنهم رؤية الروابط (فقط للاعضاء المسجلين يمكنهم رؤية الروابط)

فقط للاعضاء المسجلين يمكنهم رؤية الروابط (فقط للاعضاء المسجلين يمكنهم رؤية الروابط)


Complete name : Zapped.(2014).HDTV.720p.x264.Dual-Audio-by.Rosum.mkv
Format : Matroska
Format version : Version 4 / Version 2
File size : 2.71 GiB
Duration : 1h 29mn
Overall bit rate : 4 324 Kbps
Movie name : Zapped { 2014 } - Release for "Rosum@fb.com/hdfilm.arabic"
Encoded date : UTC 2017-01-17 18:10:45
Writing application : mkvmerge v6.3.0 ('You can't stop me!') built on Jun 28 2013 20:09:41
Writing library : libebml v1.3.0 + libmatroska v1.4.0

Video
ID : 1
Format : AVC
Format/Info : Advanced Video Codec
Format profile : High@L4.1
Format settings, CABAC : Yes
Format settings, ReFrames : 4 frames
Codec ID : V_MPEG4/ISO/AVC
Duration : 1h 29mn
Bit rate : 3 662 Kbps
Width : 1 280 pixels
Height : 720 pixels
Display aspect ratio : 16:9
Frame rate mode : Variable
Frame rate : 25.000 fps
Color space : YUV
Chroma subsampling : 4:2:0
Bit depth : 8 bits
Scan type : Progressive
Bits/(Pixel*Frame) : 0.159
Stream size : 2.30 GiB (85%)
Title : Exclusive Release "Rosum" HD4arab.com
Writing library : x264 core 142 r2479 dd79a61
Encoding settings : cabac=1 / ref=4 / deblock=1:1:1 / analyse=0x3:0x113 / me=hex / subme=6 / psy=1 / psy_rd=0.40:0.00 / mixed_ref=1 / me_range=16 / chroma_me=1 / trellis=1 / 8x8dct=1 / cqm=0 / deadzone=21,11 / fast_pskip=1 / chroma_qp_offset=-2 / threads=48 / lookahead_threads=5 / sliced_threads=0 / nr=0 / decimate=1 / interlaced=0 / bluray_compat=0 / constrained_intra=0 / bframes=5 / b_pyramid=2 / b_adapt=1 / b_bias=0 / direct=1 / weightb=1 / open_gop=0 / weightp=1 / keyint=250 / keyint_min=25 / scenecut=40 / intra_refresh=0 / rc_lookahead=30 / rc=crf / mbtree=1 / crf=17.0 / qcomp=0.60 / qpmin=0 / qpmax=69 / qpstep=4 / vbv_maxrate=62500 / vbv_bufsize=78125 / crf_max=0.0 / nal_hrd=none / filler=0 / ip_ratio=1.40 / aq=1:0.60
Language : English
Default : No
Forced : No
Color primaries : BT.709-5, BT.1361, IEC 61966-2-4, SMPTE RP177
Transfer characteristics : BT.709-5, BT.1361
Matrix coefficients : BT.709-5, BT.1361, IEC 61966-2-4 709, SMPTE RP177

Audio #1
ID : 2
Format : AC-3
Format/Info : Audio Coding 3
Mode extension : CM (complete main)
Format settings, Endianness : Big
Codec ID : A_AC3
Duration : 1h 29mn
Bit rate mode : Constant
Bit rate : 192 Kbps
Channel(s) : 2 channels
Channel positions : Front: L R
Sampling rate : 48.0 KHz
Bit depth : 16 bits
Compression mode : Lossy
Delay relative to video : -80ms
Stream size : 123 MiB (4%)
Title : Arabic, Original DVD, AC3, 2.0 ch, 192 kbps, 48.0 KHz
Language : Arabic
Default : Yes
Forced : No

Audio #2
ID : 3
Format : AC-3
Format/Info : Audio Coding 3
Mode extension : CM (complete main)
Format settings, Endianness : Big
Codec ID : A_AC3
Duration : 1h 29mn
Bit rate mode : Constant
Bit rate : 384 Kbps
Channel(s) : 2 channels
Channel positions : Front: L R
Sampling rate : 48.0 KHz
Bit depth : 16 bits
Compression mode : Lossy
Delay relative to video : -80ms
Stream size : 247 MiB (9%)
Title : English, Original DVD, AC3, 2.0 ch, 384 kbps, 48.0 KHz
Language : English
Default : No
Forced : No
فقط للاعضاء المسجلين يمكنهم رؤية الروابط (فقط للاعضاء المسجلين يمكنهم رؤية الروابط)

فقط للاعضاء المسجلين يمكنهم رؤية الروابط (فقط للاعضاء المسجلين يمكنهم رؤية الروابط)فقط للاعضاء المسجلين يمكنهم رؤية الروابط (فقط للاعضاء المسجلين يمكنهم رؤية الروابط)
فقط للاعضاء المسجلين يمكنهم رؤية الروابط (فقط للاعضاء المسجلين يمكنهم رؤية الروابط)فقط للاعضاء المسجلين يمكنهم رؤية الروابط (فقط للاعضاء المسجلين يمكنهم رؤية الروابط)
فقط للاعضاء المسجلين يمكنهم رؤية الروابط (فقط للاعضاء المسجلين يمكنهم رؤية الروابط)

فقط للاعضاء المسجلين يمكنهم رؤية الروابط (فقط للاعضاء المسجلين يمكنهم رؤية الروابط)

فقط للاعضاء المسجلين يمكنهم رؤية الروابط (فقط للاعضاء المسجلين يمكنهم رؤية الروابط)

uptobox
فقط للاعضاء المسجلين يمكنهم رؤية الروابط
فقط للاعضاء المسجلين يمكنهم رؤية الروابط
فقط للاعضاء المسجلين يمكنهم رؤية الروابط
فقط للاعضاء المسجلين يمكنهم رؤية الروابط
فقط للاعضاء المسجلين يمكنهم رؤية الروابط
فقط للاعضاء المسجلين يمكنهم رؤية الروابط
فقط للاعضاء المسجلين يمكنهم رؤية الروابط
فقط للاعضاء المسجلين يمكنهم رؤية الروابط
فقط للاعضاء المسجلين يمكنهم رؤية الروابط
فقط للاعضاء المسجلين يمكنهم رؤية الروابط

فقط للاعضاء المسجلين يمكنهم رؤية الروابط (فقط للاعضاء المسجلين يمكنهم رؤية الروابط)

uptobox
فقط للاعضاء المسجلين يمكنهم رؤية الروابط
فقط للاعضاء المسجلين يمكنهم رؤية الروابط
فقط للاعضاء المسجلين يمكنهم رؤية الروابط
فقط للاعضاء المسجلين يمكنهم رؤية الروابط
فقط للاعضاء المسجلين يمكنهم رؤية الروابط
فقط للاعضاء المسجلين يمكنهم رؤية الروابط

:):):)

ahmedy1194
03-02-2017, 09:36 PM
شكرًا جزيلاً على هذا الفلم .. جاري التحميل
إن شاء الله ينال إعجابي ��

Almaazon
03-03-2017, 06:50 PM
تسلم يا جميل

Conanlove
03-04-2017, 10:38 AM
عمل رائع

hajar91
03-05-2017, 05:09 PM
شكرا ويعطيك الف عافية الحلو انو مدبلج بالمصري