المساعد الشخصي الرقمي

مشاهدة النسخة كاملة : مدبلج للعربيه Trolls 2016 BluRay { 1080p / 720p } AC3 2.0 Dual-Audio


Admin
02-28-2017, 09:30 PM
فقط للاعضاء المسجلين يمكنهم رؤية الروابط (فقط للاعضاء المسجلين يمكنهم رؤية الروابط)

فقط للاعضاء المسجلين يمكنهم رؤية الروابط (فقط للاعضاء المسجلين يمكنهم رؤية الروابط)

Trolls

مدبلج للعربيه الفصحى صوت اصلى مع الترجمه الاحترافيه

اتش دى العرب ارض السحر والخيال

فقط للاعضاء المسجلين يمكنهم رؤية الروابط (فقط للاعضاء المسجلين يمكنهم رؤية الروابط)

فقط للاعضاء المسجلين يمكنهم رؤية الروابط (فقط للاعضاء المسجلين يمكنهم رؤية الروابط)


Complete name : Trolls.(2016).BluRay.1080p.x264.Dual-Audio-by.Rosum.mkv
Format : Matroska
Format version : Version 4 / Version 2
File size : 9.36 GiB
Duration : 1h 32mn
Overall bit rate mode : Variable
Overall bit rate : 14.5 Mbps
Movie name : Trolls { 2016 } - Release for "Rosum@fb.com/hdfilm.arabic"
Encoded date : UTC 2017-02-01 22:35:49
Writing application : mkvmerge v6.3.0 ('You can't stop me!') built on Jun 28 2013 20:09:41
Writing library : libebml v1.3.0 + libmatroska v1.4.0
Attachment : Yes

Video
ID : 1
Format : AVC
Format/Info : Advanced Video Codec
Format profile : High@L4.1
Format settings, CABAC : Yes
Format settings, ReFrames : 3 frames
Codec ID : V_MPEG4/ISO/AVC
Duration : 1h 32mn
Bit rate mode : Variable
Bit rate : 12.9 Mbps
Maximum bit rate : 40.0 Mbps
Width : 1 920 pixels
Height : 816 pixels
Display aspect ratio : 2.35:1
Frame rate : 23.976 fps
Color space : YUV
Chroma subsampling : 4:2:0
Bit depth : 8 bits
Scan type : Progressive
Bits/(Pixel*Frame) : 0.342
Stream size : 8.12 GiB (87%)
Title : Exclusive Release "Rosum" HD4arab.com
Writing library : x264 core 128 r2216 198a7ea
Encoding settings : cabac=1 / ref=4 / deblock=1:1:1 / analyse=0x3:0x113 / me=hex / subme=6 / psy=1 / psy_rd=0.40:0.00 / mixed_ref=1 / me_range=16 / chroma_me=1 / trellis=1 / 8x8dct=1 / cqm=0 / deadzone=21,11 / fast_pskip=1 / chroma_qp_offset=-2 / threads=48 / lookahead_threads=8 / sliced_threads=0 / slices=4 / nr=0 / decimate=1 / interlaced=0 / bluray_compat=1 / constrained_intra=0 / bframes=3 / b_pyramid=1 / b_adapt=1 / b_bias=0 / direct=1 / weightb=1 / open_gop=0 / weightp=1 / keyint=48 / keyint_min=1 / scenecut=40 / intra_refresh=0 / rc_lookahead=30 / rc=2pass / mbtree=1 / bitrate=12852 / ratetol=1.0 / qcomp=0.60 / qpmin=0 / qpmax=69 / qpstep=4 / cplxblur=20.0 / qblur=0.5 / vbv_maxrate=40000 / vbv_bufsize=30000 / nal_hrd=vbr / ip_ratio=1.40 / aq=1:0.60
Language : English
Default : No
Forced : No

Audio #1
ID : 2
Format : AC-3
Format/Info : Audio Coding 3
Format profile : Dolby Digital
Mode extension : CM (complete main)
Format settings, Endianness : Big
Codec ID : A_AC3
Duration : 1h 32mn
Bit rate mode : Constant
Bit rate : 192 Kbps
Channel(s) : 2 channels
Channel positions : Front: L R
Sampling rate : 48.0 KHz
Bit depth : 16 bits
Compression mode : Lossy
Delay relative to video : 78ms
Stream size : 84.7 MiB (1%)
Title : Arabic, Original DVD, AC3, 2.0 ch, 192 kbps, 48.0 KHz
Language : Arabic
Default : Yes
Forced : No

Audio #2
ID : 3
Format : DTS
Format/Info : Digital Theater Systems
Format profile : ES
Codec ID : A_DTS
Duration : 1h 32mn
Bit rate mode : Constant
Bit rate : 1 510 Kbps
Channel(s) : 6 channels
Channel positions : Front: L C R, Side: L R, LFE
Sampling rate : 48.0 KHz
Bit depth : 24 bits
Compression mode : Lossy
Delay relative to video : 83ms
Stream size : 999 MiB (10%)
Title : English Master, Original BluRay, DTS, 5.1 ch, 1509 Kbps, 48.0 KHz
Language : English
Default : No
Forced : No

Text #1
ID : 4
Format : UTF-8
Codec ID : S_TEXT/UTF8
Codec ID/Info : UTF-8 Plain Text
Title : Arabic, Professional SRT
Language : Arabic
Default : No
Forced : No

Text #2
ID : 5
Format : PGS
Muxing mode : zlib
Codec ID : S_HDMV/PGS
Codec ID/Info : The same subtitle format used on BDs/HD-DVDs
Title : English Original BluRay PGS
Language : English
Default : No
Forced : No

Menu
00:00:00.000 : :كارتون بالعربى / Rosum Movies / BluRay 3D Arabic
00:02:20.574 : :كارتون بالعربى / Rosum Movies / BluRay 3D Arabic
00:06:23.025 : :كارتون بالعربى / Rosum Movies / BluRay 3D Arabic
00:10:42.743 : :كارتون بالعربى / Rosum Movies / BluRay 3D Arabic
00:13:26.698 : :كارتون بالعربى / Rosum Movies / BluRay 3D Arabic
00:18:34.464 : :كارتون بالعربى / Rosum Movies / BluRay 3D Arabic
00:22:12.265 : :كارتون بالعربى / Rosum Movies / BluRay 3D Arabic
00:25:40.973 : :كارتون بالعربى / Rosum Movies / BluRay 3D Arabic
00:28:53.833 : :كارتون بالعربى / Rosum Movies / BluRay 3D Arabic
00:32:54.323 : :كارتون بالعربى / Rosum Movies / BluRay 3D Arabic
00:36:32.749 : :كارتون بالعربى / Rosum Movies / BluRay 3D Arabic
00:40:56.012 : :كارتون بالعربى / Rosum Movies / BluRay 3D Arabic
00:44:21.760 : :كارتون بالعربى / Rosum Movies / BluRay 3D Arabic
00:47:28.071 : :كارتون بالعربى / Rosum Movies / BluRay 3D Arabic
00:51:27.185 : :كارتون بالعربى / Rosum Movies / BluRay 3D Arabic
00:55:45.276 : :كارتون بالعربى / Rosum Movies / BluRay 3D Arabic
00:59:58.862 : :كارتون بالعربى / Rosum Movies / BluRay 3D Arabic
01:03:16.476 : :كارتون بالعربى / Rosum Movies / BluRay 3D Arabic
01:05:17.764 : :كارتون بالعربى / Rosum Movies / BluRay 3D Arabic
01:07:56.006 : :كارتون بالعربى / Rosum Movies / BluRay 3D Arabic
01:10:25.363 : :كارتون بالعربى / Rosum Movies / BluRay 3D Arabic
01:13:31.758 : :كارتون بالعربى / Rosum Movies / BluRay 3D Arabic
01:16:21.344 : :كارتون بالعربى / Rosum Movies / BluRay 3D Arabic
01:21:44.208 : :كارتون بالعربى / Rosum Movies / BluRay 3D Arabic
فقط للاعضاء المسجلين يمكنهم رؤية الروابط (فقط للاعضاء المسجلين يمكنهم رؤية الروابط)

فقط للاعضاء المسجلين يمكنهم رؤية الروابط (فقط للاعضاء المسجلين يمكنهم رؤية الروابط)فقط للاعضاء المسجلين يمكنهم رؤية الروابط (فقط للاعضاء المسجلين يمكنهم رؤية الروابط)
فقط للاعضاء المسجلين يمكنهم رؤية الروابط (فقط للاعضاء المسجلين يمكنهم رؤية الروابط)فقط للاعضاء المسجلين يمكنهم رؤية الروابط (فقط للاعضاء المسجلين يمكنهم رؤية الروابط)
فقط للاعضاء المسجلين يمكنهم رؤية الروابط (فقط للاعضاء المسجلين يمكنهم رؤية الروابط)

فقط للاعضاء المسجلين يمكنهم رؤية الروابط (فقط للاعضاء المسجلين يمكنهم رؤية الروابط)

فقط للاعضاء المسجلين يمكنهم رؤية الروابط (فقط للاعضاء المسجلين يمكنهم رؤية الروابط)


Complete name : Trolls.(2016).BluRay.720p.x264.Dual-Audio-by.Rosum.mkv
Format : Matroska
Format version : Version 4 / Version 2
File size : 3.63 GiB
Duration : 1h 32mn
Overall bit rate mode : Variable
Overall bit rate : 5 625 Kbps
Movie name : Trolls { 2016 } - Release for "Rosum@fb.com/hdfilm.arabic"
Encoded date : UTC 2017-02-01 22:11:29
Writing application : mkvmerge v6.3.0 ('You can't stop me!') built on Jun 28 2013 20:09:41
Writing library : libebml v1.3.0 + libmatroska v1.4.0
Attachment : Yes

Video
ID : 1
Format : AVC
Format/Info : Advanced Video Codec
Format profile : High@L4.1
Format settings, CABAC : Yes
Format settings, ReFrames : 3 frames
Codec ID : V_MPEG4/ISO/AVC
Duration : 1h 32mn
Bit rate mode : Variable
Bit rate : 4 837 Kbps
Maximum bit rate : 40.0 Mbps
Width : 1 280 pixels
Height : 544 pixels
Display aspect ratio : 2.35:1
Frame rate : 23.976 fps
Color space : YUV
Chroma subsampling : 4:2:0
Bit depth : 8 bits
Scan type : Progressive
Bits/(Pixel*Frame) : 0.290
Stream size : 3.06 GiB (84%)
Title : Exclusive Release "Rosum" HD4arab.com
Writing library : x264 core 128 r2216 198a7ea
Encoding settings : cabac=1 / ref=4 / deblock=1:1:1 / analyse=0x3:0x113 / me=hex / subme=6 / psy=1 / psy_rd=0.40:0.00 / mixed_ref=1 / me_range=16 / chroma_me=1 / trellis=1 / 8x8dct=1 / cqm=0 / deadzone=21,11 / fast_pskip=1 / chroma_qp_offset=-2 / threads=48 / lookahead_threads=8 / sliced_threads=0 / slices=4 / nr=0 / decimate=1 / interlaced=0 / bluray_compat=1 / constrained_intra=0 / bframes=3 / b_pyramid=1 / b_adapt=1 / b_bias=0 / direct=1 / weightb=1 / open_gop=0 / weightp=1 / keyint=48 / keyint_min=1 / scenecut=40 / intra_refresh=0 / rc_lookahead=30 / rc=2pass / mbtree=1 / bitrate=4837 / ratetol=1.0 / qcomp=0.60 / qpmin=0 / qpmax=69 / qpstep=4 / cplxblur=20.0 / qblur=0.5 / vbv_maxrate=40000 / vbv_bufsize=30000 / nal_hrd=vbr / ip_ratio=1.40 / aq=1:0.60
Language : English
Default : No
Forced : No

Audio #1
ID : 2
Format : AC-3
Format/Info : Audio Coding 3
Format profile : Dolby Digital
Mode extension : CM (complete main)
Format settings, Endianness : Big
Codec ID : A_AC3
Duration : 1h 32mn
Bit rate mode : Constant
Bit rate : 192 Kbps
Channel(s) : 2 channels
Channel positions : Front: L R
Sampling rate : 48.0 KHz
Bit depth : 16 bits
Compression mode : Lossy
Delay relative to video : 78ms
Stream size : 84.7 MiB (2%)
Title : Arabic, Original DVD, AC3, 2.0 ch, 192 kbps, 48.0 KHz
Language : Arabic
Default : Yes
Forced : No

Audio #2
ID : 3
Format : AC-3
Format/Info : Audio Coding 3
Mode extension : CM (complete main)
Format settings, Endianness : Big
Codec ID : A_AC3
Duration : 1h 32mn
Bit rate mode : Constant
Bit rate : 640 Kbps
Channel(s) : 6 channels
Channel positions : Front: L C R, Side: L R, LFE
Sampling rate : 48.0 KHz
Bit depth : 16 bits
Compression mode : Lossy
Delay relative to video : 78ms
Stream size : 423 MiB (11%)
Title : English, Original BluRay, AC3, 5.1 ch, 640 kbps, 48.0 KHz
Language : English
Default : No
Forced : No

Text #1
ID : 4
Format : UTF-8
Codec ID : S_TEXT/UTF8
Codec ID/Info : UTF-8 Plain Text
Title : Arabic, Professional SRT
Language : Arabic
Default : No
Forced : No

Text #2
ID : 5
Format : PGS
Muxing mode : zlib
Codec ID : S_HDMV/PGS
Codec ID/Info : The same subtitle format used on BDs/HD-DVDs
Title : English Original BluRay PGS
Language : English
Default : No
Forced : No

Menu
00:00:00.000 : :كارتون بالعربى / Rosum Movies / BluRay 3D Arabic
00:02:20.574 : :كارتون بالعربى / Rosum Movies / BluRay 3D Arabic
00:06:23.025 : :كارتون بالعربى / Rosum Movies / BluRay 3D Arabic
00:10:42.743 : :كارتون بالعربى / Rosum Movies / BluRay 3D Arabic
00:13:26.698 : :كارتون بالعربى / Rosum Movies / BluRay 3D Arabic
00:18:34.464 : :كارتون بالعربى / Rosum Movies / BluRay 3D Arabic
00:22:12.265 : :كارتون بالعربى / Rosum Movies / BluRay 3D Arabic
00:25:40.973 : :كارتون بالعربى / Rosum Movies / BluRay 3D Arabic
00:28:53.833 : :كارتون بالعربى / Rosum Movies / BluRay 3D Arabic
00:32:54.323 : :كارتون بالعربى / Rosum Movies / BluRay 3D Arabic
00:36:32.749 : :كارتون بالعربى / Rosum Movies / BluRay 3D Arabic
00:40:56.012 : :كارتون بالعربى / Rosum Movies / BluRay 3D Arabic
00:44:21.760 : :كارتون بالعربى / Rosum Movies / BluRay 3D Arabic
00:47:28.071 : :كارتون بالعربى / Rosum Movies / BluRay 3D Arabic
00:51:27.185 : :كارتون بالعربى / Rosum Movies / BluRay 3D Arabic
00:55:45.276 : :كارتون بالعربى / Rosum Movies / BluRay 3D Arabic
00:59:58.862 : :كارتون بالعربى / Rosum Movies / BluRay 3D Arabic
01:03:16.476 : :كارتون بالعربى / Rosum Movies / BluRay 3D Arabic
01:05:17.764 : :كارتون بالعربى / Rosum Movies / BluRay 3D Arabic
01:07:56.006 : :كارتون بالعربى / Rosum Movies / BluRay 3D Arabic
01:10:25.363 : :كارتون بالعربى / Rosum Movies / BluRay 3D Arabic
01:13:31.758 : :كارتون بالعربى / Rosum Movies / BluRay 3D Arabic
01:16:21.344 : :كارتون بالعربى / Rosum Movies / BluRay 3D Arabic
01:21:44.208 : :كارتون بالعربى / Rosum Movies / BluRay 3D Arabic
فقط للاعضاء المسجلين يمكنهم رؤية الروابط (فقط للاعضاء المسجلين يمكنهم رؤية الروابط)

فقط للاعضاء المسجلين يمكنهم رؤية الروابط (فقط للاعضاء المسجلين يمكنهم رؤية الروابط)فقط للاعضاء المسجلين يمكنهم رؤية الروابط (فقط للاعضاء المسجلين يمكنهم رؤية الروابط)
فقط للاعضاء المسجلين يمكنهم رؤية الروابط (فقط للاعضاء المسجلين يمكنهم رؤية الروابط)فقط للاعضاء المسجلين يمكنهم رؤية الروابط (فقط للاعضاء المسجلين يمكنهم رؤية الروابط)
فقط للاعضاء المسجلين يمكنهم رؤية الروابط (فقط للاعضاء المسجلين يمكنهم رؤية الروابط)

فقط للاعضاء المسجلين يمكنهم رؤية الروابط (فقط للاعضاء المسجلين يمكنهم رؤية الروابط)

فقط للاعضاء المسجلين يمكنهم رؤية الروابط (فقط للاعضاء المسجلين يمكنهم رؤية الروابط)

uptobox
فقط للاعضاء المسجلين يمكنهم رؤية الروابط
فقط للاعضاء المسجلين يمكنهم رؤية الروابط
فقط للاعضاء المسجلين يمكنهم رؤية الروابط
فقط للاعضاء المسجلين يمكنهم رؤية الروابط
فقط للاعضاء المسجلين يمكنهم رؤية الروابط
فقط للاعضاء المسجلين يمكنهم رؤية الروابط
فقط للاعضاء المسجلين يمكنهم رؤية الروابط
فقط للاعضاء المسجلين يمكنهم رؤية الروابط
فقط للاعضاء المسجلين يمكنهم رؤية الروابط
فقط للاعضاء المسجلين يمكنهم رؤية الروابط
فقط للاعضاء المسجلين يمكنهم رؤية الروابط
فقط للاعضاء المسجلين يمكنهم رؤية الروابط
فقط للاعضاء المسجلين يمكنهم رؤية الروابط
فقط للاعضاء المسجلين يمكنهم رؤية الروابط
فقط للاعضاء المسجلين يمكنهم رؤية الروابط
فقط للاعضاء المسجلين يمكنهم رؤية الروابط
فقط للاعضاء المسجلين يمكنهم رؤية الروابط
فقط للاعضاء المسجلين يمكنهم رؤية الروابط
فقط للاعضاء المسجلين يمكنهم رؤية الروابط
فقط للاعضاء المسجلين يمكنهم رؤية الروابط

فقط للاعضاء المسجلين يمكنهم رؤية الروابط (فقط للاعضاء المسجلين يمكنهم رؤية الروابط)

uptobox
فقط للاعضاء المسجلين يمكنهم رؤية الروابط
فقط للاعضاء المسجلين يمكنهم رؤية الروابط
فقط للاعضاء المسجلين يمكنهم رؤية الروابط
فقط للاعضاء المسجلين يمكنهم رؤية الروابط
فقط للاعضاء المسجلين يمكنهم رؤية الروابط
فقط للاعضاء المسجلين يمكنهم رؤية الروابط
فقط للاعضاء المسجلين يمكنهم رؤية الروابط
فقط للاعضاء المسجلين يمكنهم رؤية الروابط

:):):)