المساعد الشخصي الرقمي

مشاهدة النسخة كاملة : مدبلج للعربيه :: Kubo and the Two Strings 2016 BluRay 3D { 1080p } AC3 2.0 Dual-Audio


Admin
11-29-2016, 06:41 PM
Kubo and the Two Strings
مدبلج للعربيه الفصحى
صوت اصلى من اسطوانه البلو راى مع الترجمه الاصليه

فقط للاعضاء المسجلين يمكنهم رؤية الروابط (فقط للاعضاء المسجلين يمكنهم رؤية الروابط)

فقط للاعضاء المسجلين يمكنهم رؤية الروابط (فقط للاعضاء المسجلين يمكنهم رؤية الروابط)


Complete name : Kubo.And.The.Two.Strings.(2016).BluRay.3D.HSBS.108 0p.x264.Dual-Audio-by.Rosum.mkv
Format : Matroska
Format version : Version 4 / Version 2
File size : 8.60 GiB
Duration : 1h 41mn
Overall bit rate mode : Variable
Overall bit rate : 12.1 Mbps
Movie name : Kubo and the Two Strings { 2016 } - Release for "Rosum@fb.com/hdfilm.arabic"
Encoded date : UTC 2016-11-29 17:17:25
Writing application : mkvmerge v6.3.0 ('You can't stop me!') built on Jun 28 2013 20:09:41
Writing library : libebml v1.3.0 + libmatroska v1.4.0
Attachment : Yes

Video
ID : 1
Format : AVC
Format/Info : Advanced Video Codec
Format profile : High@L4.1
Format settings, CABAC : Yes
Format settings, ReFrames : 4 frames
Codec ID : V_MPEG4/ISO/AVC
Duration : 1h 41mn
Bit rate : 9 874 Kbps
Width : 1 920 pixels
Height : 1 080 pixels
Display aspect ratio : 16:9
Frame rate : 23.976 fps
Color space : YUV
Chroma subsampling : 4:2:0
Bit depth : 8 bits
Scan type : Progressive
Bits/(Pixel*Frame) : 0.199
Stream size : 7.01 GiB (81%)
Title : Exclusive Release "Rosum" HD4arab.com
Writing library : x264 core 148 r2699+6+41 29a38aa Yuuki [8-bit@4:2:0 X86_64][GCC 5.3.0]
Encoding settings : cabac=1 / ref=3 / deblock=1:-3:-3 / analyse=0x3:0x113 / me=umh / subme=11 / psy=1 / fade_compensate=0.00 / psy_rd=1.00:0.05 / mixed_ref=1 / me_range=48 / chroma_me=1 / trellis=2 / 8x8dct=1 / cqm=0 / deadzone=21,11 / fast_pskip=0 / chroma_qp_offset=-2 / threads=32 / lookahead_threads=5 / sliced_threads=0 / nr=0 / decimate=1 / interlaced=0 / bluray_compat=0 / constrained_intra=0 / fgo=0 / bframes=8 / b_pyramid=2 / b_adapt=2 / b_bias=0 / direct=3 / weightb=1 / open_gop=0 / weightp=2 / keyint=250 / keyint_min=23 / scenecut=40 / intra_refresh=0 / rc_lookahead=40 / rc=crf / mbtree=0 / crf=18.5000 / qcomp=0.60 / qpmin=0:0:0 / qpmax=69:69:69 / qpstep=4 / vbv_maxrate=50000 / vbv_bufsize=40000 / crf_max=0.0 / nal_hrd=none / filler=0 / ip_ratio=1.40 / pb_ratio=1.30 / aq=3:0.90
Language : English
Default : No
Forced : No

Audio #1
ID : 2
Format : AC-3
Format/Info : Audio Coding 3
Format profile : Dolby Digital
Mode extension : CM (complete main)
Format settings, Endianness : Big
Codec ID : A_AC3
Duration : 1h 41mn
Bit rate mode : Constant
Bit rate : 448 Kbps
Channel(s) : 2 channels
Channel positions : Front: L R
Sampling rate : 48.0 KHz
Bit depth : 16 bits
Compression mode : Lossy
Delay relative to video : 14ms
Stream size : 326 MiB (4%)
Title : Arabic, Original BluRay, AC3, 2.0 ch, 448 kbps, 48.0 KHz
Language : Arabic
Default : Yes
Forced : No

Audio #2
ID : 3
Format : DTS
Format/Info : Digital Theater Systems
Format profile : MA / Core
Codec ID : A_DTS
Duration : 1h 41mn
Bit rate mode : Variable
Bit rate : 1 561 Kbps / 1 510 Kbps
Channel(s) : 6 channels
Channel positions : Front: L C R, Side: L R, LFE
Sampling rate : 48.0 KHz
Bit depth : 24 bits
Compression mode : Lossless / Lossy
Title : English Master, Original BluRay, DTS, 5.1 ch, 1509 Kbps, 48.0 KHz
Language : English
Default : No
Forced : No

Text #1
ID : 4
Format : PGS
Muxing mode : zlib
Codec ID : S_HDMV/PGS
Codec ID/Info : The same subtitle format used on BDs/HD-DVDs
Title : Arabic Original BluRay PGS
Language : Arabic
Default : No
Forced : No

Text #2
ID : 5
Format : UTF-8
Codec ID : S_TEXT/UTF8
Codec ID/Info : UTF-8 Plain Text
Title : Arabic, Professional SRT
Language : Arabic
Default : No
Forced : No

Text #3
ID : 6
Format : PGS
Muxing mode : zlib
Codec ID : S_HDMV/PGS
Codec ID/Info : The same subtitle format used on BDs/HD-DVDs
Title : English Original BluRay PGS
Language : English
Default : No
Forced : No

Menu
00:00:00.000 : :كارتون بالعربى / Rosum Movies / BluRay 3D Arabic
00:02:56.593 : :كارتون بالعربى / Rosum Movies / BluRay 3D Arabic
00:07:10.722 : :كارتون بالعربى / Rosum Movies / BluRay 3D Arabic
00:12:08.978 : :كارتون بالعربى / Rosum Movies / BluRay 3D Arabic
00:17:20.039 : :كارتون بالعربى / Rosum Movies / BluRay 3D Arabic
00:21:40.883 : :كارتون بالعربى / Rosum Movies / BluRay 3D Arabic
00:25:58.557 : :كارتون بالعربى / Rosum Movies / BluRay 3D Arabic
00:32:11.638 : :كارتون بالعربى / Rosum Movies / BluRay 3D Arabic
00:36:58.216 : :كارتون بالعربى / Rosum Movies / BluRay 3D Arabic
00:42:33.717 : :كارتون بالعربى / Rosum Movies / BluRay 3D Arabic
00:47:48.866 : :كارتون بالعربى / Rosum Movies / BluRay 3D Arabic
00:50:47.753 : :كارتون بالعربى / Rosum Movies / BluRay 3D Arabic
00:56:49.155 : :كارتون بالعربى / Rosum Movies / BluRay 3D Arabic
01:02:56.481 : :كارتون بالعربى / Rosum Movies / BluRay 3D Arabic
01:08:28.354 : :كارتون بالعربى / Rosum Movies / BluRay 3D Arabic
01:12:40.814 : :كارتون بالعربى / Rosum Movies / BluRay 3D Arabic
01:20:00.837 : :كارتون بالعربى / Rosum Movies / BluRay 3D Arabic
01:24:22.349 : :كارتون بالعربى / Rosum Movies / BluRay 3D Arabic
01:28:46.154 : :كارتون بالعربى / Rosum Movies / BluRay 3D Arabic
01:32:49.647 : :كارتون بالعربى / Rosum Movies / BluRay 3D Arabic
فقط للاعضاء المسجلين يمكنهم رؤية الروابط (فقط للاعضاء المسجلين يمكنهم رؤية الروابط)

فقط للاعضاء المسجلين يمكنهم رؤية الروابط (فقط للاعضاء المسجلين يمكنهم رؤية الروابط)

فقط للاعضاء المسجلين يمكنهم رؤية الروابط (فقط للاعضاء المسجلين يمكنهم رؤية الروابط)

هذه المشاركة تحتوي على محتوى مخفي
:):):)

Mahmoud Seven
12-07-2016, 05:51 PM
مجهوود رائع

mohammadaly
12-11-2016, 02:15 AM
شكرا جزيلا

mansy
11-07-2017, 03:20 PM
مشكور لمجهودك ...