المساعد الشخصي الرقمي

مشاهدة النسخة كاملة : مدبلج للعربيه The Secret Life of Pets 2016 BluRay 3D { 1080p / 720p } AC3 2.0 Dual-Audio


Admin
11-09-2016, 11:44 AM
The Secret Life of Pets

مدبلج للعربيه
فقط للاعضاء المسجلين يمكنهم رؤية الروابط (فقط للاعضاء المسجلين يمكنهم رؤية الروابط)


فقط للاعضاء المسجلين يمكنهم رؤية الروابط (فقط للاعضاء المسجلين يمكنهم رؤية الروابط)

Complete name : The.Secret.Life.of.Pets.(2016).BluRay.3D.1080p.x26 4.Dual-Audio-by.HD4arab.mkv
Format : Matroska
Format version : Version 4 / Version 2
File size : 4.50 GiB
Duration : 1h 26mn
Overall bit rate : 7 453 Kbps
Movie name : The Secret Life of Pets { 2016 } - Release for "Rosum@fb.com/hdfilm.arabic"
Encoded date : UTC 2016-11-09 10:53:45
Writing application : mkvmerge v6.3.0 ('You can't stop me!') built on Jun 28 2013 20:09:41
Writing library : libebml v1.3.0 + libmatroska v1.4.0

Video
ID : 1
Format : AVC
Format/Info : Advanced Video Codec
Format profile : High@L4.1
Format settings, CABAC : Yes
Format settings, ReFrames : 4 frames
Codec ID : V_MPEG4/ISO/AVC
Duration : 1h 26mn
Bit rate : 6 596 Kbps
Width : 1 920 pixels
Height : 1 040 pixels
Display aspect ratio : 1.85:1
Frame rate : 23.976 fps
Color space : YUV
Chroma subsampling : 4:2:0
Bit depth : 8 bits
Scan type : Progressive
Bits/(Pixel*Frame) : 0.138
Stream size : 3.89 GiB (86%)
Writing library : x264 core 148 r2705 3f5ed56
Encoding settings : cabac=1 / ref=4 / deblock=1:0:0 / analyse=0x3:0x133 / me=umh / subme=7 / psy=1 / psy_rd=1.00:0.00 / mixed_ref=1 / me_range=16 / chroma_me=1 / trellis=1 / 8x8dct=1 / cqm=0 / deadzone=21,11 / fast_pskip=0 / chroma_qp_offset=-2 / threads=32 / lookahead_threads=5 / sliced_threads=0 / nr=0 / decimate=1 / interlaced=0 / bluray_compat=0 / constrained_intra=0 / bframes=3 / b_pyramid=2 / b_adapt=1 / b_bias=0 / direct=1 / weightb=1 / open_gop=0 / weightp=2 / keyint=250 / keyint_min=23 / scenecut=40 / intra_refresh=0 / rc_lookahead=40 / rc=2pass / mbtree=1 / bitrate=6596 / ratetol=1.0 / qcomp=0.60 / qpmin=0 / qpmax=69 / qpstep=4 / cplxblur=20.0 / qblur=0.5 / ip_ratio=1.40 / aq=1:1.00
Language : English
Default : Yes
Forced : No

Audio #1
ID : 2
Format : AC-3
Format/Info : Audio Coding 3
Mode extension : CM (complete main)
Format settings, Endianness : Big
Codec ID : A_AC3
Duration : 1h 26mn
Bit rate mode : Constant
Bit rate : 224 Kbps
Channel(s) : 2 channels
Channel positions : Front: L R
Sampling rate : 48.0 KHz
Bit depth : 16 bits
Compression mode : Lossy
Delay relative to video : 78ms
Stream size : 139 MiB (3%)
Title : Arabic, Original DVD, AC3, 2.0 ch, 224 kbps, 48.0 KHz
Language : Arabic
Default : Yes
Forced : No

Audio #2
ID : 3
Format : AC-3
Format/Info : Audio Coding 3
Mode extension : CM (complete main)
Format settings, Endianness : Big
Codec ID : A_AC3
Duration : 1h 26mn
Bit rate mode : Constant
Bit rate : 640 Kbps
Channel(s) : 6 channels
Channel positions : Front: L C R, Side: L R, LFE
Sampling rate : 48.0 KHz
Bit depth : 16 bits
Compression mode : Lossy
Delay relative to video : 83ms
Stream size : 396 MiB (9%)
Title : English, Original BluRay, AC3, 5.1 ch, 640 kbps, 48.0 KHz
Language : English
Default : No
Forced : No

Text #1
ID : 4
Format : UTF-8
Codec ID : S_TEXT/UTF8
Codec ID/Info : UTF-8 Plain Text
Title : Arabic, Professional SRT
Language : Arabic
Default : No
Forced : No

Text #2
ID : 5
Format : UTF-8
Codec ID : S_TEXT/UTF8
Codec ID/Info : UTF-8 Plain Text
Language : English
Default : No
Forced : No

Menu
00:00:00.000 : :كارتون بالعربى / Rosum Movies / BluRay 3D Arabic
00:05:05.930 : :كارتون بالعربى / Rosum Movies / BluRay 3D Arabic
00:09:24.147 : :كارتون بالعربى / Rosum Movies / BluRay 3D Arabic
00:13:19.006 : :كارتون بالعربى / Rosum Movies / BluRay 3D Arabic
00:18:03.749 : :كارتون بالعربى / Rosum Movies / BluRay 3D Arabic
00:22:14.541 : :كارتون بالعربى / Rosum Movies / BluRay 3D Arabic
00:28:51.938 : :كارتون بالعربى / Rosum Movies / BluRay 3D Arabic
00:32:54.931 : :كارتون بالعربى / Rosum Movies / BluRay 3D Arabic
00:36:55.922 : :كارتون بالعربى / Rosum Movies / BluRay 3D Arabic
00:42:27.378 : :كارتون بالعربى / Rosum Movies / BluRay 3D Arabic
00:44:46.850 : :كارتون بالعربى / Rosum Movies / BluRay 3D Arabic
00:50:21.310 : :كارتون بالعربى / Rosum Movies / BluRay 3D Arabic
00:54:45.574 : :كارتون بالعربى / Rosum Movies / BluRay 3D Arabic
00:59:34.112 : :كارتون بالعربى / Rosum Movies / BluRay 3D Arabic
01:02:36.627 : :كارتون بالعربى / Rosum Movies / BluRay 3D Arabic
01:07:12.445 : :كارتون بالعربى / Rosum Movies / BluRay 3D Arabic
01:13:06.924 : :كارتون بالعربى / Rosum Movies / BluRay 3D Arabic
01:16:04.685 : :كارتون بالعربى / Rosum Movies / BluRay 3D Arabic
01:18:48.140 : :كارتون بالعربى / Rosum Movies / BluRay 3D Arabic
01:19:58.919 : :كارتون بالعربى / Rosum Movies / BluRay 3D Arabic
فقط للاعضاء المسجلين يمكنهم رؤية الروابط (فقط للاعضاء المسجلين يمكنهم رؤية الروابط)
فقط للاعضاء المسجلين يمكنهم رؤية الروابط (فقط للاعضاء المسجلين يمكنهم رؤية الروابط)فقط للاعضاء المسجلين يمكنهم رؤية الروابط (فقط للاعضاء المسجلين يمكنهم رؤية الروابط)
فقط للاعضاء المسجلين يمكنهم رؤية الروابط (فقط للاعضاء المسجلين يمكنهم رؤية الروابط)فقط للاعضاء المسجلين يمكنهم رؤية الروابط (فقط للاعضاء المسجلين يمكنهم رؤية الروابط)

فقط للاعضاء المسجلين يمكنهم رؤية الروابط (فقط للاعضاء المسجلين يمكنهم رؤية الروابط)

فقط للاعضاء المسجلين يمكنهم رؤية الروابط (فقط للاعضاء المسجلين يمكنهم رؤية الروابط)

Complete name : The.Secret.Life.of.Pets.(2016).BluRay.1080p.2.x264 .Dual-Audio-by.HD4arab.mkv
Format : Matroska
Format version : Version 4 / Version 2
File size : 6.56 GiB
Duration : 1h 26mn
Overall bit rate mode : Variable
Overall bit rate : 10.9 Mbps
Movie name : The Secret Life of Pets { 2016 } - Release for "Rosum@fb.com/hdfilm.arabic"
Encoded date : UTC 2016-11-09 10:42:50
Writing application : mkvmerge v6.3.0 ('You can't stop me!') built on Jun 28 2013 20:09:41
Writing library : libebml v1.3.0 + libmatroska v1.4.0

Video
ID : 1
Format : AVC
Format/Info : Advanced Video Codec
Format profile : High@L4.1
Format settings, CABAC : Yes
Format settings, ReFrames : 3 frames
Codec ID : V_MPEG4/ISO/AVC
Duration : 1h 26mn
Bit rate mode : Variable
Bit rate : 10 000 Kbps
Maximum bit rate : 40.0 Mbps
Width : 1 920 pixels
Height : 1 024 pixels
Display aspect ratio : 1.85:1
Frame rate : 23.976 fps
Color space : YUV
Chroma subsampling : 4:2:0
Bit depth : 8 bits
Scan type : Progressive
Bits/(Pixel*Frame) : 0.212
Stream size : 5.91 GiB (90%)
Title : Exclusive Release "Rosum" HD4arab.com
Writing library : x264 core 128 r2216 198a7ea
Encoding settings : cabac=1 / ref=4 / deblock=1:1:1 / analyse=0x3:0x113 / me=hex / subme=6 / psy=1 / psy_rd=0.40:0.00 / mixed_ref=1 / me_range=16 / chroma_me=1 / trellis=1 / 8x8dct=1 / cqm=0 / deadzone=21,11 / fast_pskip=1 / chroma_qp_offset=-2 / threads=48 / lookahead_threads=8 / sliced_threads=0 / slices=4 / nr=0 / decimate=1 / interlaced=0 / bluray_compat=1 / constrained_intra=0 / bframes=3 / b_pyramid=1 / b_adapt=1 / b_bias=0 / direct=1 / weightb=1 / open_gop=0 / weightp=1 / keyint=48 / keyint_min=1 / scenecut=40 / intra_refresh=0 / rc_lookahead=30 / rc=2pass / mbtree=1 / bitrate=10000 / ratetol=1.0 / qcomp=0.60 / qpmin=0 / qpmax=69 / qpstep=4 / cplxblur=20.0 / qblur=0.5 / vbv_maxrate=40000 / vbv_bufsize=30000 / nal_hrd=vbr / ip_ratio=1.40 / aq=1:0.60
Language : English
Default : No
Forced : No

Audio #1
ID : 2
Format : AC-3
Format/Info : Audio Coding 3
Mode extension : CM (complete main)
Format settings, Endianness : Big
Codec ID : A_AC3
Duration : 1h 26mn
Bit rate mode : Constant
Bit rate : 224 Kbps
Channel(s) : 2 channels
Channel positions : Front: L R
Sampling rate : 48.0 KHz
Bit depth : 16 bits
Compression mode : Lossy
Delay relative to video : 78ms
Stream size : 139 MiB (2%)
Title : Arabic, Original DVD, AC3, 2.0 ch, 224 kbps, 48.0 KHz
Language : Arabic
Default : Yes
Forced : No

Audio #2
ID : 3
Format : AC-3
Format/Info : Audio Coding 3
Mode extension : CM (complete main)
Format settings, Endianness : Big
Codec ID : A_AC3
Duration : 1h 26mn
Bit rate mode : Constant
Bit rate : 640 Kbps
Channel(s) : 6 channels
Channel positions : Front: L C R, Side: L R, LFE
Sampling rate : 48.0 KHz
Bit depth : 16 bits
Compression mode : Lossy
Delay relative to video : 83ms
Stream size : 396 MiB (6%)
Title : English, Original BluRay, AC3, 5.1 ch, 640 kbps, 48.0 KHz
Language : English
Default : No
Forced : No

Text #1
ID : 4
Format : UTF-8
Codec ID : S_TEXT/UTF8
Codec ID/Info : UTF-8 Plain Text
Title : Arabic, Professional SRT
Language : Arabic
Default : No
Forced : No

Text #2
ID : 5
Format : UTF-8
Codec ID : S_TEXT/UTF8
Codec ID/Info : UTF-8 Plain Text
Language : English
Default : No
Forced : No

Menu
00:00:00.000 : :كارتون بالعربى / Rosum Movies / BluRay 3D Arabic
00:05:05.930 : :كارتون بالعربى / Rosum Movies / BluRay 3D Arabic
00:09:24.147 : :كارتون بالعربى / Rosum Movies / BluRay 3D Arabic
00:13:19.006 : :كارتون بالعربى / Rosum Movies / BluRay 3D Arabic
00:18:03.749 : :كارتون بالعربى / Rosum Movies / BluRay 3D Arabic
00:22:14.541 : :كارتون بالعربى / Rosum Movies / BluRay 3D Arabic
00:28:51.938 : :كارتون بالعربى / Rosum Movies / BluRay 3D Arabic
00:32:54.931 : :كارتون بالعربى / Rosum Movies / BluRay 3D Arabic
00:36:55.922 : :كارتون بالعربى / Rosum Movies / BluRay 3D Arabic
00:42:27.378 : :كارتون بالعربى / Rosum Movies / BluRay 3D Arabic
00:44:46.850 : :كارتون بالعربى / Rosum Movies / BluRay 3D Arabic
00:50:21.310 : :كارتون بالعربى / Rosum Movies / BluRay 3D Arabic
00:54:45.574 : :كارتون بالعربى / Rosum Movies / BluRay 3D Arabic
00:59:34.112 : :كارتون بالعربى / Rosum Movies / BluRay 3D Arabic
01:02:36.627 : :كارتون بالعربى / Rosum Movies / BluRay 3D Arabic
01:07:12.445 : :كارتون بالعربى / Rosum Movies / BluRay 3D Arabic
01:13:06.924 : :كارتون بالعربى / Rosum Movies / BluRay 3D Arabic
01:16:04.685 : :كارتون بالعربى / Rosum Movies / BluRay 3D Arabic
01:18:48.140 : :كارتون بالعربى / Rosum Movies / BluRay 3D Arabic
01:19:58.919 : :كارتون بالعربى / Rosum Movies / BluRay 3D Arabic
فقط للاعضاء المسجلين يمكنهم رؤية الروابط (فقط للاعضاء المسجلين يمكنهم رؤية الروابط)

فقط للاعضاء المسجلين يمكنهم رؤية الروابط (فقط للاعضاء المسجلين يمكنهم رؤية الروابط)

فقط للاعضاء المسجلين يمكنهم رؤية الروابط (فقط للاعضاء المسجلين يمكنهم رؤية الروابط)

فقط للاعضاء المسجلين يمكنهم رؤية الروابط (فقط للاعضاء المسجلين يمكنهم رؤية الروابط)

Complete name : The.Secret.Life.of.Pets.(2016).BluRay720p.x264.2.D ual-Audio-by.HD4arab.mkv
Format : Matroska
Format version : Version 4 / Version 2
File size : 2.64 GiB
Duration : 1h 26mn
Overall bit rate mode : Variable
Overall bit rate : 4 363 Kbps
Movie name : The Secret Life of Pets { 2016 } - Release for "Rosum@fb.com/hdfilm.arabic"
Encoded date : UTC 2016-11-08 22:56:18
Writing application : mkvmerge v6.3.0 ('You can't stop me!') built on Jun 28 2013 20:09:41
Writing library : libebml v1.3.0 + libmatroska v1.4.0

Video
ID : 1
Format : AVC
Format/Info : Advanced Video Codec
Format profile : High@L4.1
Format settings, CABAC : Yes
Format settings, ReFrames : 3 frames
Format settings, GOP : M=1, N=48
Codec ID : V_MPEG4/ISO/AVC
Duration : 1h 26mn
Bit rate mode : Variable
Bit rate : 3 500 Kbps
Maximum bit rate : 40.0 Mbps
Width : 1 280 pixels
Height : 688 pixels
Display aspect ratio : 1.85:1
Frame rate : 23.976 fps
Color space : YUV
Chroma subsampling : 4:2:0
Bit depth : 8 bits
Scan type : Progressive
Bits/(Pixel*Frame) : 0.166
Stream size : 2.06 GiB (78%)
Title : Exclusive Release "Rosum" HD4arab.com
Writing library : x264 core 128 r2216 198a7ea
Encoding settings : cabac=1 / ref=4 / deblock=1:1:1 / analyse=0x3:0x113 / me=hex / subme=6 / psy=1 / psy_rd=0.40:0.00 / mixed_ref=1 / me_range=16 / chroma_me=1 / trellis=1 / 8x8dct=1 / cqm=0 / deadzone=21,11 / fast_pskip=1 / chroma_qp_offset=-2 / threads=48 / lookahead_threads=8 / sliced_threads=0 / slices=4 / nr=0 / decimate=1 / interlaced=0 / bluray_compat=1 / constrained_intra=0 / bframes=3 / b_pyramid=1 / b_adapt=1 / b_bias=0 / direct=1 / weightb=1 / open_gop=0 / weightp=1 / keyint=48 / keyint_min=1 / scenecut=40 / intra_refresh=0 / rc_lookahead=30 / rc=2pass / mbtree=1 / bitrate=3500 / ratetol=1.0 / qcomp=0.60 / qpmin=0 / qpmax=69 / qpstep=4 / cplxblur=20.0 / qblur=0.5 / vbv_maxrate=40000 / vbv_bufsize=30000 / nal_hrd=vbr / ip_ratio=1.40 / aq=1:0.60
Language : English
Default : No
Forced : No

Audio #1
ID : 2
Format : AC-3
Format/Info : Audio Coding 3
Mode extension : CM (complete main)
Format settings, Endianness : Big
Codec ID : A_AC3
Duration : 1h 26mn
Bit rate mode : Constant
Bit rate : 224 Kbps
Channel(s) : 2 channels
Channel positions : Front: L R
Sampling rate : 48.0 KHz
Bit depth : 16 bits
Compression mode : Lossy
Delay relative to video : 78ms
Stream size : 139 MiB (5%)
Title : Arabic, Original DVD, AC3, 2.0 ch, 224 kbps, 48.0 KHz
Language : Arabic
Default : Yes
Forced : No

Audio #2
ID : 3
Format : AC-3
Format/Info : Audio Coding 3
Mode extension : CM (complete main)
Format settings, Endianness : Big
Codec ID : A_AC3
Duration : 1h 26mn
Bit rate mode : Constant
Bit rate : 640 Kbps
Channel(s) : 6 channels
Channel positions : Front: L C R, Side: L R, LFE
Sampling rate : 48.0 KHz
Bit depth : 16 bits
Compression mode : Lossy
Delay relative to video : 83ms
Stream size : 396 MiB (15%)
Title : English, Original BluRay, AC3, 5.1 ch, 640 kbps, 48.0 KHz
Language : English
Default : No
Forced : No

Text #1
ID : 4
Format : UTF-8
Codec ID : S_TEXT/UTF8
Codec ID/Info : UTF-8 Plain Text
Title : Arabic, Professional SRT
Language : Arabic
Default : No
Forced : No

Text #2
ID : 5
Format : UTF-8
Codec ID : S_TEXT/UTF8
Codec ID/Info : UTF-8 Plain Text
Language : English
Default : No
Forced : No

Menu
00:00:00.000 : :كارتون بالعربى / Rosum Movies / BluRay 3D Arabic
00:05:05.930 : :كارتون بالعربى / Rosum Movies / BluRay 3D Arabic
00:09:24.147 : :كارتون بالعربى / Rosum Movies / BluRay 3D Arabic
00:13:19.006 : :كارتون بالعربى / Rosum Movies / BluRay 3D Arabic
00:18:03.749 : :كارتون بالعربى / Rosum Movies / BluRay 3D Arabic
00:22:14.541 : :كارتون بالعربى / Rosum Movies / BluRay 3D Arabic
00:28:51.938 : :كارتون بالعربى / Rosum Movies / BluRay 3D Arabic
00:32:54.931 : :كارتون بالعربى / Rosum Movies / BluRay 3D Arabic
00:36:55.922 : :كارتون بالعربى / Rosum Movies / BluRay 3D Arabic
00:42:27.378 : :كارتون بالعربى / Rosum Movies / BluRay 3D Arabic
00:44:46.850 : :كارتون بالعربى / Rosum Movies / BluRay 3D Arabic
00:50:21.310 : :كارتون بالعربى / Rosum Movies / BluRay 3D Arabic
00:54:45.574 : :كارتون بالعربى / Rosum Movies / BluRay 3D Arabic
00:59:34.112 : :كارتون بالعربى / Rosum Movies / BluRay 3D Arabic
01:02:36.627 : :كارتون بالعربى / Rosum Movies / BluRay 3D Arabic
01:07:12.445 : :كارتون بالعربى / Rosum Movies / BluRay 3D Arabic
01:13:06.924 : :كارتون بالعربى / Rosum Movies / BluRay 3D Arabic
01:16:04.685 : :كارتون بالعربى / Rosum Movies / BluRay 3D Arabic
01:18:48.140 : :كارتون بالعربى / Rosum Movies / BluRay 3D Arabic
01:19:58.919 : :كارتون بالعربى / Rosum Movies / BluRay 3D Arabic
فقط للاعضاء المسجلين يمكنهم رؤية الروابط (فقط للاعضاء المسجلين يمكنهم رؤية الروابط)

فقط للاعضاء المسجلين يمكنهم رؤية الروابط (فقط للاعضاء المسجلين يمكنهم رؤية الروابط)

فقط للاعضاء المسجلين يمكنهم رؤية الروابط (فقط للاعضاء المسجلين يمكنهم رؤية الروابط)

فقط للاعضاء المسجلين يمكنهم رؤية الروابط (فقط للاعضاء المسجلين يمكنهم رؤية الروابط)

ul.to
فقط للاعضاء المسجلين يمكنهم رؤية الروابط
فقط للاعضاء المسجلين يمكنهم رؤية الروابط
فقط للاعضاء المسجلين يمكنهم رؤية الروابط
فقط للاعضاء المسجلين يمكنهم رؤية الروابط
فقط للاعضاء المسجلين يمكنهم رؤية الروابط
فقط للاعضاء المسجلين يمكنهم رؤية الروابط
فقط للاعضاء المسجلين يمكنهم رؤية الروابط

uptobox.com
فقط للاعضاء المسجلين يمكنهم رؤية الروابط
فقط للاعضاء المسجلين يمكنهم رؤية الروابط
فقط للاعضاء المسجلين يمكنهم رؤية الروابط
فقط للاعضاء المسجلين يمكنهم رؤية الروابط
فقط للاعضاء المسجلين يمكنهم رؤية الروابط
فقط للاعضاء المسجلين يمكنهم رؤية الروابط
فقط للاعضاء المسجلين يمكنهم رؤية الروابط

فقط للاعضاء المسجلين يمكنهم رؤية الروابط (فقط للاعضاء المسجلين يمكنهم رؤية الروابط)

ul.to
فقط للاعضاء المسجلين يمكنهم رؤية الروابط
فقط للاعضاء المسجلين يمكنهم رؤية الروابط
فقط للاعضاء المسجلين يمكنهم رؤية الروابط
فقط للاعضاء المسجلين يمكنهم رؤية الروابط
فقط للاعضاء المسجلين يمكنهم رؤية الروابط
فقط للاعضاء المسجلين يمكنهم رؤية الروابط
فقط للاعضاء المسجلين يمكنهم رؤية الروابط
فقط للاعضاء المسجلين يمكنهم رؤية الروابط
فقط للاعضاء المسجلين يمكنهم رؤية الروابط

uptobox.com
فقط للاعضاء المسجلين يمكنهم رؤية الروابط
فقط للاعضاء المسجلين يمكنهم رؤية الروابط
فقط للاعضاء المسجلين يمكنهم رؤية الروابط
فقط للاعضاء المسجلين يمكنهم رؤية الروابط
فقط للاعضاء المسجلين يمكنهم رؤية الروابط
فقط للاعضاء المسجلين يمكنهم رؤية الروابط
فقط للاعضاء المسجلين يمكنهم رؤية الروابط
فقط للاعضاء المسجلين يمكنهم رؤية الروابط
فقط للاعضاء المسجلين يمكنهم رؤية الروابط

فقط للاعضاء المسجلين يمكنهم رؤية الروابط (فقط للاعضاء المسجلين يمكنهم رؤية الروابط)

ul.to
فقط للاعضاء المسجلين يمكنهم رؤية الروابط
فقط للاعضاء المسجلين يمكنهم رؤية الروابط
فقط للاعضاء المسجلين يمكنهم رؤية الروابط
فقط للاعضاء المسجلين يمكنهم رؤية الروابط

uptobox.com
فقط للاعضاء المسجلين يمكنهم رؤية الروابط
فقط للاعضاء المسجلين يمكنهم رؤية الروابط
فقط للاعضاء المسجلين يمكنهم رؤية الروابط
فقط للاعضاء المسجلين يمكنهم رؤية الروابط

:):):)

brak88
11-09-2016, 12:04 PM
عاشت ايدك وبارك الله بك والله ما قصرت يا ريس

Lions
11-09-2016, 12:05 PM
يالزيز يا رايق الف شكر

Shokry
11-09-2016, 12:09 PM
... تسلم ياهيما يامشهيصنا

مجدولين
11-09-2016, 01:35 PM
شغل جامد يامعلم

فعلاً ملك الحصريات .... مفيش أي موقع تاني نزل الفيلم ده بلوراي


تحياتي ......

A_Baidak
11-09-2016, 09:31 PM
الله عليك يا معلم وتسلم اديك يا ابراهيم

m-rayan-2006
11-09-2016, 10:31 PM
عمل راااائع ومميز

SaNad Abu Ulbeh
11-10-2016, 12:07 AM
مجهود ممتاز وحصري جدا والتميز والابداع ولا اجمل

Abdelrahman
11-10-2016, 01:11 AM
ألف شكر يا باشا و جزاك الله خير

Ahmed Nasser
11-10-2016, 10:19 PM
تسلم ايدك يا مدلعنا :d

Sumt
11-12-2016, 06:52 AM
ابدااااع يا هيما استمررر

pingoman
11-12-2016, 10:40 AM
شكرا لك على المجهود الرائع والحصري

Ashraf Brshaway
11-14-2016, 07:29 PM
شكرا أستاذ إبراهيم على الأفلام الجميلة

NiNo
11-19-2016, 01:24 AM
shokrn awy film gamil

Dr. Hussein
04-22-2017, 10:12 PM
مشكور على المجهود الرائع

لكن رابط الجزء الثاني 720p معطل

shadymfm
06-18-2017, 10:33 AM
كل التحية على هذا العمل الجميل جداً