المساعد الشخصي الرقمي

مشاهدة النسخة كاملة : مدبلج للعربيه :: Ice Age: Collision Course 2016 BluRay { 720p } AC3 5.1 Dual-Audio


Admin
11-03-2016, 01:09 PM
Ice Age: Collision Course
مدبلج للعربيه الفصحى
صوت اصلى من اسطوانه البلو راى مع الترجمه الاصليه

فقط للاعضاء المسجلين يمكنهم رؤية الروابط (فقط للاعضاء المسجلين يمكنهم رؤية الروابط)

فقط للاعضاء المسجلين يمكنهم رؤية الروابط


Complete name : Ice.Age.Collision.Course.(2016).BluRay.1080p.x264. Dual-Audio-by.Rosum.mkv
Format : Matroska
Format version : Version 4 / Version 2
File size : 5.34 GiB
Duration : 1h 34mn
Overall bit rate mode : Variable
Overall bit rate : 8 084 Kbps
Movie name : Ice Age: Collision Course { 2016 } - Release for "Rosum@fb.com/hdfilm.arabic"
Encoded date : UTC 2016-11-03 12:54:58
Writing application : mkvmerge v6.3.0 ('You can't stop me!') built on Jun 28 2013 20:09:41
Writing library : libebml v1.3.0 + libmatroska v1.4.0
Attachment : Yes

Video
ID : 1
Format : AVC
Format/Info : Advanced Video Codec
Format profile : High@L4.1
Format settings, CABAC : Yes
Format settings, ReFrames : 3 frames
Codec ID : V_MPEG4/ISO/AVC
Duration : 1h 34mn
Bit rate mode : Variable
Bit rate : 5 879 Kbps
Nominal bit rate : 3 000 Kbps
Maximum bit rate : 40.0 Mbps
Width : 1 280 pixels
Height : 534 pixels
Display aspect ratio : 2.40:1
Frame rate : 23.976 fps
Color space : YUV
Chroma subsampling : 4:2:0
Bit depth : 8 bits
Scan type : Progressive
Bits/(Pixel*Frame) : 0.359
Stream size : 3.88 GiB (73%)
Title : Exclusive Release "Rosum" HD4arab.com
Writing library : x264 core 128 r2216 198a7ea
Encoding settings : cabac=1 / ref=4 / deblock=1:1:1 / analyse=0x3:0x113 / me=hex / subme=6 / psy=1 / psy_rd=0.40:0.00 / mixed_ref=1 / me_range=16 / chroma_me=1 / trellis=1 / 8x8dct=1 / cqm=0 / deadzone=21,11 / fast_pskip=1 / chroma_qp_offset=-2 / threads=48 / lookahead_threads=8 / sliced_threads=0 / slices=4 / nr=0 / decimate=1 / interlaced=0 / bluray_compat=1 / constrained_intra=0 / bframes=3 / b_pyramid=1 / b_adapt=1 / b_bias=0 / direct=1 / weightb=1 / open_gop=0 / weightp=1 / keyint=48 / keyint_min=1 / scenecut=40 / intra_refresh=0 / rc_lookahead=30 / rc=2pass / mbtree=1 / bitrate=3000 / ratetol=1.0 / qcomp=0.60 / qpmin=0 / qpmax=69 / qpstep=4 / cplxblur=20.0 / qblur=0.5 / vbv_maxrate=40000 / vbv_bufsize=30000 / nal_hrd=vbr / ip_ratio=1.40 / aq=1:0.60
Language : English
Default : No
Forced : No

Audio #1
ID : 2
Format : AC-3
Format/Info : Audio Coding 3
Mode extension : CM (complete main)
Format settings, Endianness : Big
Codec ID : A_AC3
Duration : 1h 34mn
Bit rate mode : Constant
Bit rate : 448 Kbps
Channel(s) : 6 channels
Channel positions : Front: L C R, Side: L R, LFE
Sampling rate : 48.0 KHz
Bit depth : 16 bits
Compression mode : Lossy
Stream size : 303 MiB (6%)
Title : Arabic, Original BluRay, AC3, 5.1 ch, 448 kbps, 48.0 KHz
Language : Arabic
Default : Yes
Forced : No

Audio #2
ID : 3
Format : DTS
Format/Info : Digital Theater Systems
Format profile : MA / Core
Codec ID : A_DTS
Duration : 1h 34mn
Bit rate mode : Variable
Bit rate : 1 597 Kbps / 1 510 Kbps
Channel(s) : 8 channels / 6 channels
Channel positions : Front: L C R, Side: L R, Back: L R, LFE / Front: L C R, Side: L R, LFE
Sampling rate : 48.0 KHz
Bit depth : 24 bits
Compression mode : Lossless / Lossy
Delay relative to video : 83ms
Title : English Master, Original BluRay, DTS, 7.1 ch, 1509 Kbps, 48.0 KHz
Language : English
Default : No
Forced : No

Text #1
ID : 4
Format : PGS
Muxing mode : zlib
Codec ID : S_HDMV/PGS
Codec ID/Info : The same subtitle format used on BDs/HD-DVDs
Title : Arabic Original BluRay SUP
Language : Arabic
Default : No
Forced : No

Text #2
ID : 5
Format : PGS
Muxing mode : zlib
Codec ID : S_HDMV/PGS
Codec ID/Info : The same subtitle format used on BDs/HD-DVDs
Title : Arabic Original BluRay SUP
Language : Arabic
Default : No
Forced : No

Text #3
ID : 6
Format : PGS
Muxing mode : zlib
Codec ID : S_HDMV/PGS
Codec ID/Info : The same subtitle format used on BDs/HD-DVDs
Title : English Original BluRay PGS
Language : English
Default : No
Forced : No

Menu
00:00:00.000 : :كارتون بالعربى / Rosum Movies / BluRay 3D Arabic
00:03:09.189 : :كارتون بالعربى / Rosum Movies / BluRay 3D Arabic
00:05:24.449 : :كارتون بالعربى / Rosum Movies / BluRay 3D Arabic
00:09:06.295 : :كارتون بالعربى / Rosum Movies / BluRay 3D Arabic
00:13:22.385 : :كارتون بالعربى / Rosum Movies / BluRay 3D Arabic
00:18:05.918 : :كارتون بالعربى / Rosum Movies / BluRay 3D Arabic
00:20:50.666 : :كارتون بالعربى / Rosum Movies / BluRay 3D Arabic
00:23:10.389 : :كارتون بالعربى / Rosum Movies / BluRay 3D Arabic
00:27:30.106 : :كارتون بالعربى / Rosum Movies / BluRay 3D Arabic
00:30:16.064 : :كارتون بالعربى / Rosum Movies / BluRay 3D Arabic
00:32:54.556 : :كارتون بالعربى / Rosum Movies / BluRay 3D Arabic
00:36:13.755 : :كارتون بالعربى / Rosum Movies / BluRay 3D Arabic
00:39:33.663 : :كارتون بالعربى / Rosum Movies / BluRay 3D Arabic
00:42:58.909 : :كارتون بالعربى / Rosum Movies / BluRay 3D Arabic
00:47:35.102 : :كارتون بالعربى / Rosum Movies / BluRay 3D Arabic
00:51:11.943 : :كارتون بالعربى / Rosum Movies / BluRay 3D Arabic
00:55:50.931 : :كارتون بالعربى / Rosum Movies / BluRay 3D Arabic
01:01:09.624 : :كارتون بالعربى / Rosum Movies / BluRay 3D Arabic
01:05:06.486 : :كارتون بالعربى / Rosum Movies / BluRay 3D Arabic
01:09:39.467 : :كارتون بالعربى / Rosum Movies / BluRay 3D Arabic
01:14:37.097 : :كارتون بالعربى / Rosum Movies / BluRay 3D Arabic
01:17:41.615 : :كارتون بالعربى / Rosum Movies / BluRay 3D Arabic
01:21:43.148 : :كارتون بالعربى / Rosum Movies / BluRay 3D Arabic
01:24:46.665 : :كارتون بالعربى / Rosum Movies / BluRay 3D Arabic
فقط للاعضاء المسجلين يمكنهم رؤية الروابط

فقط للاعضاء المسجلين يمكنهم رؤية الروابط (فقط للاعضاء المسجلين يمكنهم رؤية الروابط)

فقط للاعضاء المسجلين يمكنهم رؤية الروابط
فقط للاعضاء المسجلين يمكنهم رؤية الروابط
فقط للاعضاء المسجلين يمكنهم رؤية الروابط
فقط للاعضاء المسجلين يمكنهم رؤية الروابط
فقط للاعضاء المسجلين يمكنهم رؤية الروابط
فقط للاعضاء المسجلين يمكنهم رؤية الروابط
فقط للاعضاء المسجلين يمكنهم رؤية الروابط
فقط للاعضاء المسجلين يمكنهم رؤية الروابط
فقط للاعضاء المسجلين يمكنهم رؤية الروابط
فقط للاعضاء المسجلين يمكنهم رؤية الروابط
فقط للاعضاء المسجلين يمكنهم رؤية الروابط
فقط للاعضاء المسجلين يمكنهم رؤية الروابط
:):):)

Sumt
11-03-2016, 01:11 PM
ايه الابداعات المتتاليه

تسلم يمنك حبيبي ةبراهيم

A_Baidak
11-03-2016, 01:12 PM
بالوفيق يا هيما فعلا انت بتاع الحصريات

Shokry
11-03-2016, 01:22 PM
ابراهيم يضرب من جديد ... عارف انا المعاناة اللى انت فيها عشان تطلع الشغل الجميل ده =d ... ربنا يقويك .

Fares
11-03-2016, 01:25 PM
جزاك الله كل خير

Eng.Ahmed
11-03-2016, 01:52 PM
بارك الله فيك مجهود ولا اروع

hamadey_ps3
11-03-2016, 10:28 PM
ممكن طريقة التحميل من روابط الموقع

H.M.O
11-04-2016, 08:57 AM
جزاك الله خيراً

Lions
11-05-2016, 11:52 AM
مجهود ولا اروع يا هيما شكرا بعدد الكيلو بايت

Shokry
11-05-2016, 02:17 PM
تسلم ياابراهيم على الشغل الجميل ده والجودة والدبلجة ... دايمآ سابق الكل وحصرى

alimuhsin123
11-05-2016, 07:42 PM
والله انت بطل بججججد
يعطيك العافية ياااوحش

وسيم صقر
12-07-2016, 09:47 AM
جزاك الله كل خير

Dr. Hussein
03-28-2017, 02:45 PM
thanks a lot

sosar2004
04-17-2017, 03:44 PM
جزاك الله خير

shadymfm
06-18-2017, 09:52 AM
مجهود رائع و عمل مميز، كل الشكر و التقدير