المساعد الشخصي الرقمي

مشاهدة النسخة كاملة : مدبلج للعربيه :: Nine (2009) BluRay { 1080p } AC3 2.0


Admin
10-08-2016, 10:19 PM
9

مدبلج للعربيه الفصحى
دبلجه اصليه من اسطوانه الدى فى دى

فقط للاعضاء المسجلين يمكنهم رؤية الروابط (فقط للاعضاء المسجلين يمكنهم رؤية الروابط)

فقط للاعضاء المسجلين يمكنهم رؤية الروابط (فقط للاعضاء المسجلين يمكنهم رؤية الروابط)


Complete name : 9.(2009).BluRay.1080p.x264.AC3-by.Rosum.mkv
Format : Matroska
Format version : Version 4 / Version 2
File size : 1.81 GiB
Duration : 1h 19mn
Overall bit rate : 3 259 Kbps
Encoded date : UTC 2016-09-13 21:24:16
Writing application : mkvmerge v6.3.0 ('You can't stop me!') built on Jun 28 2013 20:09:41
Writing library : libebml v1.3.0 + libmatroska v1.4.0

Video
ID : 1
Format : AVC
Format/Info : Advanced Video Codec
Format profile : High@L4.1
Format settings, CABAC : Yes
Format settings, ReFrames : 4 frames
Codec ID : V_MPEG4/ISO/AVC
Duration : 1h 19mn
Bit rate : 3 038 Kbps
Width : 1 920 pixels
Height : 1 080 pixels
Display aspect ratio : 16:9
Frame rate : 23.976 fps
Color space : YUV
Chroma subsampling : 4:2:0
Bit depth : 8 bits
Scan type : Progressive
Bits/(Pixel*Frame) : 0.061
Stream size : 1.65 GiB (91%)
Title : Exclusive Release "Rosum" HD4arab.com
Writing library : x264 core 128 r2216 198a7ea
Encoding settings : cabac=1 / ref=4 / deblock=1:1:1 / analyse=0x3:0x113 / me=hex / subme=6 / psy=1 / psy_rd=0.40:0.00 / mixed_ref=1 / me_range=16 / chroma_me=1 / trellis=1 / 8x8dct=1 / cqm=0 / deadzone=21,11 / fast_pskip=1 / chroma_qp_offset=-2 / threads=48 / lookahead_threads=8 / sliced_threads=0 / nr=0 / decimate=1 / interlaced=0 / bluray_compat=0 / constrained_intra=0 / bframes=3 / b_pyramid=2 / b_adapt=1 / b_bias=0 / direct=1 / weightb=1 / open_gop=0 / weightp=1 / keyint=96 / keyint_min=9 / scenecut=40 / intra_refresh=0 / rc_lookahead=30 / rc=2pass / mbtree=1 / bitrate=3038 / ratetol=1.0 / qcomp=0.60 / qpmin=0 / qpmax=69 / qpstep=4 / cplxblur=20.0 / qblur=0.5 / vbv_maxrate=20000 / vbv_bufsize=25000 / nal_hrd=none / ip_ratio=1.40 / aq=1:0.60
Language : English
Default : No
Forced : No

Audio
ID : 2
Format : AC-3
Format/Info : Audio Coding 3
Mode extension : CM (complete main)
Format settings, Endianness : Big
Codec ID : A_AC3
Duration : 1h 19mn
Bit rate mode : Constant
Bit rate : 224 Kbps
Channel(s) : 2 channels
Channel positions : Front: L R
Sampling rate : 48.0 KHz
Bit depth : 16 bits
Compression mode : Lossy
Stream size : 127 MiB (7%)
Title : Arabic, DVD, AC3, 2.0 ch, 224 kbps, 48.0 KHz
Language : Arabic
Default : Yes
Forced : No

Menu
00:00:00.000 : :كارتون بالعربى / Rosum Movies / BluRay 3D Arabic
00:01:37.989 : :كارتون بالعربى / Rosum Movies / BluRay 3D Arabic
00:04:45.260 : :كارتون بالعربى / Rosum Movies / BluRay 3D Arabic
00:07:21.750 : :كارتون بالعربى / Rosum Movies / BluRay 3D Arabic
00:09:34.549 : :كارتون بالعربى / Rosum Movies / BluRay 3D Arabic
00:12:11.914 : :كارتون بالعربى / Rosum Movies / BluRay 3D Arabic
00:14:15.705 : :كارتون بالعربى / Rosum Movies / BluRay 3D Arabic
00:17:35.029 : :كارتون بالعربى / Rosum Movies / BluRay 3D Arabic
00:20:52.309 : :كارتون بالعربى / Rosum Movies / BluRay 3D Arabic
00:24:21.143 : :كارتون بالعربى / Rosum Movies / BluRay 3D Arabic
00:29:05.927 : :كارتون بالعربى / Rosum Movies / BluRay 3D Arabic
00:31:19.478 : :كارتون بالعربى / Rosum Movies / BluRay 3D Arabic
00:33:45.248 : :كارتون بالعربى / Rosum Movies / BluRay 3D Arabic
00:39:52.407 : :كارتون بالعربى / Rosum Movies / BluRay 3D Arabic
00:43:00.261 : :كارتون بالعربى / Rosum Movies / BluRay 3D Arabic
00:46:05.821 : :كارتون بالعربى / Rosum Movies / BluRay 3D Arabic
00:48:59.119 : :كارتون بالعربى / Rosum Movies / BluRay 3D Arabic
00:51:06.455 : :كارتون بالعربى / Rosum Movies / BluRay 3D Arabic
00:52:47.973 : :كارتون بالعربى / Rosum Movies / BluRay 3D Arabic
00:55:06.778 : :كارتون بالعربى / Rosum Movies / BluRay 3D Arabic
01:00:33.021 : :كارتون بالعربى / Rosum Movies / BluRay 3D Arabic
01:03:38.206 : :كارتون بالعربى / Rosum Movies / BluRay 3D Arabic
01:08:26.327 : :كارتون بالعربى / Rosum Movies / BluRay 3D Arabic
01:12:13.554 : :كارتون بالعربى / Rosum Movies / BluRay 3D Arabic
فقط للاعضاء المسجلين يمكنهم رؤية الروابط (فقط للاعضاء المسجلين يمكنهم رؤية الروابط)

فقط للاعضاء المسجلين يمكنهم رؤية الروابط (فقط للاعضاء المسجلين يمكنهم رؤية الروابط)

فقط للاعضاء المسجلين يمكنهم رؤية الروابط (فقط للاعضاء المسجلين يمكنهم رؤية الروابط)

فقط للاعضاء المسجلين يمكنهم رؤية الروابط (فقط للاعضاء المسجلين يمكنهم رؤية الروابط)
فقط للاعضاء المسجلين يمكنهم رؤية الروابط
:):):)

Seif
03-03-2017, 07:19 AM
بارك الله لك مبدع

Ali
06-25-2017, 09:29 AM
شكرا جزيلا يا طيب