المساعد الشخصي الرقمي

مشاهدة النسخة كاملة : مدبلج للعربيه :: Shrek The Third 2007 BluRay 3D { 1080p } AC3 5.1 Dual-Audio


Admin
08-21-2016, 12:19 AM
Shrek The Third

مدبلج للعربيه الفصحى
صوت اصلى من اسطوانه البلو راى مع الترجمه الاصليه

Exclusive

فقط للاعضاء المسجلين يمكنهم رؤية الروابط (فقط للاعضاء المسجلين يمكنهم رؤية الروابط)

فقط للاعضاء المسجلين يمكنهم رؤية الروابط (فقط للاعضاء المسجلين يمكنهم رؤية الروابط)



Complete name : Shrek.The.Third.{2007}.BluRay.3D.Half.1080p.x264.D ual-Audio-by.Rosum.mkv
Format : Matroska
Format version : Version 4 / Version 2
File size : 6.02 GiB
Duration : 1h 32mn
Overall bit rate : 9 293 Kbps
Movie name : Shrek the Third { 2007 } - Release for "hdfilm-Arabic.blogspot.com"
Encoded date : UTC 2015-07-04 01:15:01
Writing application : mkvmerge v8.1.0 ('Psychedelic Postcard') 64bit
Writing library : Lavf55.12.0
DURATION : 01:32:43.008000000
NUMBER_OF_FRAMES : 173844
NUMBER_OF_BYTES : 445040640
_STATISTICS_WRITING_APP : mkvmerge v8.1.0 ('Psychedelic Postcard') 64bit
_STATISTICS_WRITING_DATE_UT : 2015-07-04 01:15:01
_STATISTICS_TAGS : BPS DURATION NUMBER_OF_FRAMES NUMBER_OF_BYTES

Video
ID : 1
Format : AVC
Format/Info : Advanced Video Codec
Format profile : High@L4.1
Format settings, CABAC : Yes
Format settings, ReFrames : 4 frames
Codec ID : V_MPEG4/ISO/AVC
Duration : 1h 32mn
Bit rate : 7 828 Kbps
Width : 1 920 pixels
Height : 1 080 pixels
Display aspect ratio : 16:9
Frame rate mode : Constant
Frame rate : 23.976 fps
Color space : YUV
Chroma subsampling : 4:2:0
Bit depth : 8 bits
Scan type : Progressive
Bits/(Pixel*Frame) : 0.157
Stream size : 5.07 GiB (84%)
Title : Exclusive Release "Rosum" ArabicSource.net
Writing library : x264 core 128 r2216 198a7ea
Encoding settings : cabac=1 / ref=4 / deblock=1:-3:-3 / analyse=0x3:0x113 / me=umh / subme=9 / psy=1 / psy_rd=1.00:0.15 / mixed_ref=1 / me_range=16 / chroma_me=1 / trellis=2 / 8x8dct=1 / cqm=0 / deadzone=21,11 / fast_pskip=1 / chroma_qp_offset=-3 / threads=3 / lookahead_threads=1 / sliced_threads=0 / slices=4 / nr=0 / decimate=1 / interlaced=0 / bluray_compat=0 / constrained_intra=0 / bframes=6 / b_pyramid=2 / b_adapt=2 / b_bias=0 / direct=3 / weightb=1 / open_gop=0 / weightp=2 / keyint=240 / keyint_min=23 / scenecut=40 / intra_refresh=0 / rc_lookahead=60 / rc=crf / mbtree=1 / crf=17.0 / qcomp=0.70 / qpmin=0 / qpmax=69 / qpstep=4 / vbv_maxrate=40000 / vbv_bufsize=40000 / crf_max=0.0 / nal_hrd=none / frame-packing=4 / ip_ratio=1.40 / aq=1:0.70
Language : English
Default : Yes
Forced : No

Audio #1
ID : 2
Format : AC-3
Format/Info : Audio Coding 3
Mode extension : CM (complete main)
Format settings, Endianness : Big
Codec ID : A_AC3
Duration : 1h 32mn
Bit rate mode : Constant
Bit rate : 640 Kbps
Channel(s) : 6 channels
Channel positions : Front: L C R, Side: L R, LFE
Sampling rate : 48.0 KHz
Compression mode : Lossy
Delay relative to video : 11ms
Stream size : 425 MiB (7%)
Title : Arabic, Original BluRay, AC3, 5.1 ch , 640 kbps, 48.0 KHz
Language : Arabic
Default : Yes
Forced : No
DURATION : 01:32:45.184000000
NUMBER_OF_FRAMES : 173912
NUMBER_OF_BYTES : 445214720
_STATISTICS_WRITING_APP : mkvmerge v8.1.0 ('Psychedelic Postcard') 64bit
_STATISTICS_WRITING_DATE_UT : 2015-07-04 01:15:01
_STATISTICS_TAGS : BPS DURATION NUMBER_OF_FRAMES NUMBER_OF_BYTES

Audio #2
ID : 3
Format : AC-3
Format/Info : Audio Coding 3
Mode extension : CM (complete main)
Format settings, Endianness : Big
Codec ID : A_AC3
Duration : 1h 32mn
Bit rate mode : Constant
Bit rate : 640 Kbps
Channel(s) : 6 channels
Channel positions : Front: L C R, Side: L R, LFE
Sampling rate : 48.0 KHz
Compression mode : Lossy
Stream size : 425 MiB (7%)
Title : English, Original BluRay, AC3, 5.1 ch , 640 kbps, 48.0 KHz
Language : Arabic
Default : No
Forced : No
DURATION : 01:31:49.003000000
NUMBER_OF_FRAMES : 2162
NUMBER_OF_BYTES : 5114828
_STATISTICS_WRITING_APP : mkvmerge v8.1.0 ('Psychedelic Postcard') 64bit
_STATISTICS_WRITING_DATE_UT : 2015-07-04 01:15:01
_STATISTICS_TAGS : BPS DURATION NUMBER_OF_FRAMES NUMBER_OF_BYTES

Text #1
ID : 4
Format : PGS
Muxing mode : zlib
Codec ID : S_HDMV/PGS
Codec ID/Info : Picture based subtitle format used on BDs/HD-DVDs
Title : Arabic Original BluRay PGS
Language : English
Default : No
Forced : No
DURATION : 01:24:20.973000000
NUMBER_OF_FRAMES : 2256
NUMBER_OF_BYTES : 7445474
_STATISTICS_WRITING_APP : mkvmerge v8.1.0 ('Psychedelic Postcard') 64bit
_STATISTICS_WRITING_DATE_UT : 2015-07-04 01:15:01
_STATISTICS_TAGS : BPS DURATION NUMBER_OF_FRAMES NUMBER_OF_BYTES

Text #2
ID : 5
Format : PGS
Muxing mode : zlib
Codec ID : S_HDMV/PGS
Codec ID/Info : Picture based subtitle format used on BDs/HD-DVDs
Title : English Original BluRay PGS
Language : English
Default : No
Forced : No
DURATION : 01:21:50.072000000
NUMBER_OF_FRAMES : 4565
NUMBER_OF_BYTES : 12514821
_STATISTICS_WRITING_APP : mkvmerge v8.1.0 ('Psychedelic Postcard') 64bit
_STATISTICS_WRITING_DATE_UT : 2015-07-04 01:15:01
_STATISTICS_TAGS : BPS DURATION NUMBER_OF_FRAMES NUMBER_OF_BYTES

Text #3
ID : 6
Format : PGS
Muxing mode : zlib
Codec ID : S_HDMV/PGS
Codec ID/Info : Picture based subtitle format used on BDs/HD-DVDs
Title : English Original BluRay PGS
Language : English
Default : No
Forced : No

Menu
00:00:00.000 : :Chapter 1
00:03:21.991 : :Chapter 2
00:09:33.112 : :Chapter 3
00:13:49.451 : :Chapter 4
00:17:29.421 : :Chapter 5
00:25:13.968 : :Chapter 6
00:32:14.180 : :Chapter 7
00:38:33.809 : :Chapter 8
00:41:15.095 : :Chapter 9
00:49:13.657 : :Chapter 10
00:51:53.316 : :Chapter 11
00:56:49.237 : :Chapter 12
00:59:22.390 : :Chapter 13
01:03:28.344 : :Chapter 14
01:07:06.353 : :Chapter 15
01:10:29.264 : :Chapter 16
01:19:42.359 : :Chapter 17
01:22:22.852 : :Chapter 18

فقط للاعضاء المسجلين يمكنهم رؤية الروابط (فقط للاعضاء المسجلين يمكنهم رؤية الروابط)

فقط للاعضاء المسجلين يمكنهم رؤية الروابط (فقط للاعضاء المسجلين يمكنهم رؤية الروابط)

فقط للاعضاء المسجلين يمكنهم رؤية الروابط (فقط للاعضاء المسجلين يمكنهم رؤية الروابط)

هذه المشاركة تحتوي على محتوى مخفي

:):):)

yasserelgohary
08-21-2016, 06:11 AM
تسلم ايدك والف شكر