المساعد الشخصي الرقمي

مشاهدة النسخة كاملة : مدبلج للعربيه :: Ice Age 3 Dawn of the Dinosaurs 2009 BluRay 3D { 1080p } AC3 5.1 Dual-Audio


Admin
07-16-2016, 11:31 PM
عصر الجليد : ظهور الديناصورات :: Ice Age 3 Dawn of the Dinosaurs

مدبلج للعربيه الفصحى
صوت اصلى من اسطوانه البلو راى مع الترجمه الاصليه

فقط للاعضاء المسجلين يمكنهم رؤية الروابط (فقط للاعضاء المسجلين يمكنهم رؤية الروابط)

فقط للاعضاء المسجلين يمكنهم رؤية الروابط (فقط للاعضاء المسجلين يمكنهم رؤية الروابط)



Complete name : Ice.Age.Dawn.of.the.Dinosaurs.{2009}.BluRay.3D.Hal f-OU.1080p.x264.Dual-Audio-by.Rosum.mkv
Format : Matroska
Format version : Version 4 / Version 2
File size : 7.86 GiB
Duration : 1h 34mn
Overall bit rate : 12.0 Mbps
Movie name : Ice Age 3 Dawn of the Dinosaurs { 2009 } - Release for "hdfilm-Arabic.blogspot.com"
Encoded date : UTC 2015-06-25 14:59:31
Writing application : mkvmerge v8.0.0 ('Til The Day That I Die') 64bit
Writing library : libebml v1.3.1 + libmatroska v1.4.2
Attachements : cover / Cover.png
DURATION : 01:33:16.270000000
NUMBER_OF_FRAMES : 816
NUMBER_OF_BYTES : 1893669
_STATISTICS_WRITING_APP : mkvmerge v8.0.0 ('Til The Day That I Die') 64bit
_STATISTICS_WRITING_DATE_UT : 2015-06-25 14:59:31
_STATISTICS_TAGS : BPS DURATION NUMBER_OF_FRAMES NUMBER_OF_BYTES

Video
ID : 1
Format : AVC
Format/Info : Advanced Video Codec
Format profile : High@L4.1
Format settings, CABAC : Yes
Format settings, ReFrames : 4 frames
Codec ID : V_MPEG4/ISO/AVC
Duration : 1h 34mn
Bit rate : 10 000 Kbps
Width : 1 920 pixels
Height : 1 080 pixels
Display aspect ratio : 16:9
Frame rate mode : Constant
Frame rate : 23.976 fps
Color space : YUV
Chroma subsampling : 4:2:0
Bit depth : 8 bits
Scan type : Progressive
Bits/(Pixel*Frame) : 0.201
Stream size : 6.42 GiB (82%)
Title : Exclusive Release "Rosum" ArabicSource.net
Writing library : x264 core 146 r2538kMod 121396c
Encoding settings : cabac=1 / ref=4 / deblock=1:-3:-3 / analyse=0x3:0x113 / me=umh / subme=10 / psy=1 / fade_compensate=0.00 / psy_rd=1.00:0.00 / mixed_ref=1 / me_range=32 / chroma_me=1 / trellis=2 / 8x8dct=1 / cqm=0 / deadzone=21,11 / fast_pskip=0 / chroma_qp_offset=-2 / threads=12 / lookahead_threads=2 / sliced_threads=0 / nr=0 / decimate=0 / interlaced=0 / bluray_compat=0 / constrained_intra=0 / fgo=0 / bframes=8 / b_pyramid=2 / b_adapt=2 / b_bias=0 / direct=3 / weightb=1 / open_gop=0 / weightp=2 / keyint=250 / keyint_min=23 / scenecut=40 / intra_refresh=0 / rc_lookahead=80 / rc=2pass / mbtree=0 / bitrate=10000 / ratetol=1.0 / qcomp=0.60 / qpmin=0 / qpmax=69 / qpstep=4 / cplxblur=20.0 / qblur=0.5 / vbv_maxrate=50000 / vbv_bufsize=62500 / nal_hrd=none / filler=0 / frame-packing=4 / ip_ratio=1.40 / pb_ratio=1.30 / aq=1:1.00
Language : English
Default : Yes
Forced : No

Audio #1
ID : 2
Format : AC-3
Format/Info : Audio Coding 3
Mode extension : CM (complete main)
Format settings, Endianness : Big
Codec ID : A_AC3
Duration : 1h 34mn
Bit rate mode : Constant
Bit rate : 448 Kbps
Channel(s) : 6 channels
Channel positions : Front: L C R, Side: L R, LFE
Sampling rate : 48.0 KHz
Compression mode : Lossy
Delay relative to video : 18ms
Stream size : 301 MiB (4%)
Title : Arabic, Original BluRay, AC3, 5.1 ch , 448 kbps, 48.0 KHz
Language : Arabic
Default : Yes
Forced : No

Audio #2
ID : 3
Format : DTS
Format/Info : Digital Theater Systems
Format profile : ES
Mode : 16
Format settings, Endianness : Big
Codec ID : A_DTS
Duration : 1h 34mn
Bit rate mode : Constant
Bit rate : 1 509 Kbps
Channel(s) : 6 channels
Channel positions : Front: L C R, Side: L R, LFE
Sampling rate : 48.0 KHz
Bit depth : 16 bits
Compression mode : Lossy
Stream size : 1 015 MiB (13%)
Title : DTS 5.1 @ 1536 kbps
Language : English
Default : No
Forced : No
DURATION : 01:20:49.761000000
NUMBER_OF_FRAMES : 1630
NUMBER_OF_BYTES : 4900094
_STATISTICS_WRITING_APP : mkvmerge v8.0.0 ('Til The Day That I Die') 64bit
_STATISTICS_WRITING_DATE_UT : 2015-06-25 14:59:31
_STATISTICS_TAGS : BPS DURATION NUMBER_OF_FRAMES NUMBER_OF_BYTES

Text #1
ID : 4
Format : VobSub
Muxing mode : zlib
Codec ID : S_VOBSUB
Codec ID/Info : Picture based subtitle format used on DVDs
Title : Arabic Original BluRay IDX
Language : Arabic
Default : No
Forced : No

Text #2
ID : 5
Format : PGS
Muxing mode : zlib
Codec ID : S_HDMV/PGS
Codec ID/Info : Picture based subtitle format used on BDs/HD-DVDs
Title : English Original BluRay PGS
Language : English
Default : No
Forced : No

Text #3
ID : 6
Format : UTF-8
Codec ID : S_TEXT/UTF8
Codec ID/Info : UTF-8 Plain Text
Title : bSRT/UTF8B Full
Language : English
Default : No
Forced : No

Menu
00:00:00.000 : :1. Main titles / In love
00:03:09.852 : :2. Having a baby
00:10:37.883 : :3. Sid's new family
00:16:04.668 : :4. Baby dinosaurs
00:19:59.486 : :5. Play nice
00:24:06.691 : :6. One angry fossil
00:27:28.685 : :7. Underground world
00:31:46.609 : :8. Buck to the rescue
00:36:09.705 : :9. Fierce flora
00:41:10.631 : :10. Chasm of death
00:48:28.109 : :11. Parenting dispute
00:50:45.371 : :12. An eye for a tooth
00:57:02.039 : :13. Nutty tango
00:58:05.186 : :14. On Sid's trail
01:03:10.324 : :15. Code word
01:08:04.076 : :16. Lava lake
01:11:36.079 : :17. Peaches
01:15:59.342 : :18. Battling Rudy
01:21:04.105 : :19. Home, sweet home
01:26:49.158 : :20. End titles

فقط للاعضاء المسجلين يمكنهم رؤية الروابط (فقط للاعضاء المسجلين يمكنهم رؤية الروابط)




فقط للاعضاء المسجلين يمكنهم رؤية الروابط (فقط للاعضاء المسجلين يمكنهم رؤية الروابط)فقط للاعضاء المسجلين يمكنهم رؤية الروابط (فقط للاعضاء المسجلين يمكنهم رؤية الروابط)فقط للاعضاء المسجلين يمكنهم رؤية الروابط (فقط للاعضاء المسجلين يمكنهم رؤية الروابط)فقط للاعضاء المسجلين يمكنهم رؤية الروابط (فقط للاعضاء المسجلين يمكنهم رؤية الروابط)فقط للاعضاء المسجلين يمكنهم رؤية الروابط (فقط للاعضاء المسجلين يمكنهم رؤية الروابط)
فقط للاعضاء المسجلين يمكنهم رؤية الروابط (فقط للاعضاء المسجلين يمكنهم رؤية الروابط)

فقط للاعضاء المسجلين يمكنهم رؤية الروابط (فقط للاعضاء المسجلين يمكنهم رؤية الروابط)

هذه المشاركة تحتوي على محتوى مخفي

:):):)

mohamed mahdy
07-22-2016, 05:00 AM
مشكوووووووور الله ينور ^_^

dr.zaki
07-23-2016, 10:48 PM
الف شكر يامبدع

yasserelgohary
07-27-2016, 10:58 AM
ألف شكر ربنا يبارك في مجهودكم يارب

shadymfm
11-17-2017, 08:23 PM
مجهود كبير و أعمال متميزة