المساعد الشخصي الرقمي

مشاهدة النسخة كاملة : مدبلج للعربيه :: Ice Age Continental Drift 2012 BluRay 3D { 1080p } AC3 5.1 Dual-Audio


Admin
07-16-2016, 01:38 PM
Ice Age Continental Drift 2012 BluRay

مدبلج للعربيه الفصحى
صوت اصلى من اسطوانه الدى فى دى مع الترجمه الاصليه


فقط للاعضاء المسجلين يمكنهم رؤية الروابط (فقط للاعضاء المسجلين يمكنهم رؤية الروابط)

فقط للاعضاء المسجلين يمكنهم رؤية الروابط (فقط للاعضاء المسجلين يمكنهم رؤية الروابط)


Complete name : Ice.Age.4.Continental.Drift.(2012).BluRay.3D.1080p .AC3.AVCHD.Dual-Audio-by.Rosum.mkv
Format : Matroska
Format version : Version 2
File size : 9.44 GiB
Duration : 1h 27mn
Overall bit rate : 15.4 Mbps
Movie name : Ice Age Continental Drift ( 2012 ) - Release for "rosum-clips.blogspot.com"
Encoded date : UTC 2013-02-21 01:56:57
Writing application : mkvmerge v5.0.1 ('Es ist Sommer') built on Oct 9 2011 11:55:43
Writing library : libebml v1.2.2 + libmatroska v1.3.0

Video
ID : 1
Format : AVC
Format/Info : Advanced Video Codec
Format profile : High@L4.1
Format settings, CABAC : Yes
Format settings, ReFrames : 2 frames
Muxing mode : Header stripping
Codec ID : V_MPEG4/ISO/AVC
Duration : 1h 27mn
Bit rate : 13.2 Mbps
Width : 1 920 pixels
Height : 1 080 pixels
Display aspect ratio : 16:9
Frame rate mode : Constant
Frame rate : 23.976 fps
Color space : YUV
Chroma subsampling : 4:2:0
Bit depth : 8 bits
Scan type : Progressive
Bits/(Pixel*Frame) : 0.265
Stream size : 8.09 GiB (86%)
Title : Exclusive Release "Rosum"
Writing library : x264 core
Language : English
Default : No
Forced : No
Color primaries : BT.709
Transfer characteristics : BT.709
Matrix coefficients : BT.709

Audio #1
ID : 2
Format : AC-3
Format/Info : Audio Coding 3
Mode extension : CM (complete main)
Format settings, Endianness : Big
Muxing mode : Header stripping
Codec ID : A_AC3
Duration : 1h 27mn
Bit rate mode : Constant
Bit rate : 384 Kbps
Channel(s) : 6 channels
Channel positions : Front: L C R, Side: L R, LFE
Sampling rate : 48.0 KHz
Bit depth : 16 bits
Compression mode : Lossy
Delay relative to video : 1s 0ms
Stream size : 241 MiB (2%)
Title : Arabic, Original DVD, AC3, 5.1 ch , 384 kbps, 48.0 KHz
Language : Arabic
Default : Yes
Forced : No

Audio #2
ID : 3
Format : DTS
Format/Info : Digital Theater Systems
Mode : 16
Format settings, Endianness : Big
Muxing mode : Header stripping
Codec ID : A_DTS
Duration : 1h 27mn
Bit rate mode : Constant
Bit rate : 1 509 Kbps
Channel(s) : 6 channels
Channel positions : Front: L C R, Side: L R, LFE
Sampling rate : 48.0 KHz
Bit depth : 24 bits
Compression mode : Lossy
Stream size : 947 MiB (10%)
Title : English Master, Original Blu-ray, DTS, 5.1 ch , 1509 Kbps, 48.0 KHz
Language : English
Default : No
Forced : No

Text #1
ID : 4
Format : VobSub
Muxing mode : zlib
Codec ID : S_VOBSUB
Codec ID/Info : The same subtitle format used on DVDs
Title : Arabic Original DVD IDX
Language : Arabic
Default : Yes
Forced : No

Text #2
ID : 5
Format : VobSub
Muxing mode : zlib
Codec ID : S_VOBSUB
Codec ID/Info : The same subtitle format used on DVDs
Title : Arabic Original DVD IDX
Language : Arabic
Default : No
Forced : No

Text #3
ID : 6
Format : VobSub
Muxing mode : zlib
Codec ID : S_VOBSUB
Codec ID/Info : The same subtitle format used on DVDs
Title : Arabic Original Blu-ray IDX
Language : Arabic
Default : No
Forced : No

Text #4
ID : 7
Format : VobSub
Muxing mode : zlib
Codec ID : S_VOBSUB
Codec ID/Info : The same subtitle format used on DVDs
Title : English Original DVD IDX
Language : English
Default : No
Forced : No

Text #5
ID : 8
Format : PGS
Muxing mode : zlib
Codec ID : S_HDMV/PGS
Codec ID/Info : The same subtitle format used on BDs/HD-DVDs
Title : English Original Blu-ray SUP
Language : English
Default : No
Forced : No

Menu
00:00:00.000 : en:00:00:00.000
00:03:25.038 : en:00:03:25.038
00:05:08.225 : en:00:05:08.225
00:09:34.407 : en:00:09:34.407
00:13:09.706 : en:00:13:09.706
00:15:56.330 : en:00:15:56.330
00:18:23.644 : en:00:18:23.644
00:22:24.718 : en:00:22:24.718
00:25:57.556 : en:00:25:57.556
00:29:18.966 : en:00:29:18.966
00:32:58.602 : en:00:32:58.602
00:36:15.382 : en:00:36:15.382
00:38:42.654 : en:00:38:42.654
00:43:49.710 : en:00:43:49.710
00:45:30.645 : en:00:45:30.645
00:49:39.977 : en:00:49:39.977
00:53:50.477 : en:00:53:50.477
00:57:23.857 : en:00:57:23.857
01:02:32.040 : en:01:02:32.040
01:08:09.335 : en:01:08:09.335
01:11:11.476 : en:01:11:11.476
01:13:15.641 : en:01:13:15.641
01:16:54.401 : en:01:16:54.401
01:19:24.635 : en:01:19:24.635
فقط للاعضاء المسجلين يمكنهم رؤية الروابط (فقط للاعضاء المسجلين يمكنهم رؤية الروابط)

فقط للاعضاء المسجلين يمكنهم رؤية الروابط

فقط للاعضاء المسجلين يمكنهم رؤية الروابط (فقط للاعضاء المسجلين يمكنهم رؤية الروابط)

هذه المشاركة تحتوي على محتوى مخفي

:):):)

mohamed mahdy
07-22-2016, 04:50 AM
مشكوووووووور الله ينور ^_^

mohamed mahdy
07-22-2016, 04:26 PM
بعد اذنك يا ادمن فيه اجزاء ناقصه في الملفات عند الفك بيطلب الجزء 45 و شكرا ^^

Admin
07-27-2016, 01:19 AM
تم تظبيط الروابط

mohamed mahdy
07-27-2016, 02:37 AM
الف شكر ^^ وجاري التحميل

yasserelgohary
07-27-2016, 11:05 AM
ألف شكر ربنا يبارك في مجهودكم يارب

بحب الانمى
11-03-2016, 09:16 AM
الف شكر

الفارس
11-03-2016, 08:17 PM
مشكور على المشاركة

عبدالله
11-03-2016, 08:35 PM
مشكور

dr.zaki
11-04-2016, 07:51 PM
الف شكر ^^ وجاري التحميل