المساعد الشخصي الرقمي

مشاهدة النسخة كاملة : مدبلج للعربيه :: Epic 2013 BluRay 3D { 1080p } AC3 2.0 Dual-Audio


Admin
07-02-2016, 09:57 AM
Epic
مدبلج للعربيه الفصحى

فقط للاعضاء المسجلين يمكنهم رؤية الروابط (فقط للاعضاء المسجلين يمكنهم رؤية الروابط)

فقط للاعضاء المسجلين يمكنهم رؤية الروابط (فقط للاعضاء المسجلين يمكنهم رؤية الروابط)


Complete name : Epic.3D.(2013).BluRay.3D.1080p.x264.Dual-Audio-by.Rosum.mkv
Format : Matroska
Format version : Version 4 / Version 2
File size : 10.5 GiB
Duration : 1h 42mn
Overall bit rate : 14.7 Mbps
Movie name : Epic { 2013 } - Release for "hdfilm-ar.blogspot.com"
Encoded date : UTC 2014-09-01 04:11:46
Writing application : mkvmerge v6.3.0 ('You can't stop me!') built on Jun 28 2013 20:09:41
Writing library : libebml v1.3.0 + libmatroska v1.4.0
Cover : Yes

Video
ID : 1
Format : AVC
Format/Info : Advanced Video Codec
Format profile : High@L4.1
Format settings, CABAC : Yes
Format settings, ReFrames : 2 frames
Codec ID : V_MPEG4/ISO/AVC
Duration : 1h 42mn
Bit rate : 12.5 Mbps
Width : 1 920 pixels
Height : 1 080 pixels
Display aspect ratio : 16:9
Frame rate mode : Constant
Frame rate : 23.976 fps
Color space : YUV
Chroma subsampling : 4:2:0
Bit depth : 8 bits
Scan type : Progressive
Bits/(Pixel*Frame) : 0.250
Stream size : 8.92 GiB (85%)
Title : Exclusive Release "Rosum"
Writing library : x264 core
Language : English
Default : Yes
Forced : No
Color primaries : BT.709
Transfer characteristics : BT.709
Matrix coefficients : BT.709

Audio #1
ID : 2
Format : AC-3
Format/Info : Audio Coding 3
Mode extension : CM (complete main)
Format settings, Endianness : Big
Codec ID : A_AC3
Duration : 1h 42mn
Bit rate mode : Constant
Bit rate : 448 Kbps
Channel(s) : 2 channels
Channel positions : Front: L R
Sampling rate : 44.1 KHz
Bit depth : 16 bits
Compression mode : Lossy
Stream size : 328 MiB (3%)
Title : Arabic, Osn, AC3, 2.0 ch , 448 kbps, 48.0 KHz
Language : Arabic
Default : Yes
Forced : No

Audio #2
ID : 3
Format : DTS
Format/Info : Digital Theater Systems
Format profile : ES
Mode : 16
Format settings, Endianness : Big
Codec ID : A_DTS
Duration : 1h 42mn
Bit rate mode : Constant
Bit rate : 1 509 Kbps
Channel(s) : 6 channels
Channel positions : Front: L C R, Side: L R, LFE
Sampling rate : 48.0 KHz
Bit depth : 24 bits
Compression mode : Lossy
Stream size : 1.08 GiB (10%)
Title : English Master, Original BluRay, DTS, 5.1 ch , 1509 Kbps, 48.0 KHz
Language : English
Default : No
Forced : No

Text #1
ID : 4
Format : UTF-8
Codec ID : S_TEXT/UTF8
Codec ID/Info : UTF-8 Plain Text
Title : SRT, Full
Language : English
Default : No
Forced : No

Text #2
ID : 5
Format : UTF-8
Codec ID : S_TEXT/UTF8
Codec ID/Info : UTF-8 Plain Text
Title : SRT, (SDH)
Language : English
Default : No
Forced : No

Menu
00:00:00.000 : en:Chapter 1
00:04:48.205 : en:Chapter 2
00:09:49.589 : en:Chapter 3
00:13:05.535 : en:Chapter 4
00:16:50.051 : en:Chapter 5
00:20:36.193 : en:Chapter 6
00:24:09.490 : en:Chapter 7
00:28:17.237 : en:Chapter 8
00:31:31.848 : en:Chapter 9
00:34:06.586 : en:Chapter 10
00:38:21.591 : en:Chapter 11
00:43:17.428 : en:Chapter 12
00:44:58.029 : en:Chapter 13
00:47:04.739 : en:Chapter 14
00:49:07.945 : en:Chapter 15
00:52:40.699 : en:Chapter 16
00:56:28.885 : en:Chapter 17
00:59:52.214 : en:Chapter 18
01:03:27.387 : en:Chapter 19
01:07:48.940 : en:Chapter 20
01:14:36.472 : en:Chapter 21
01:18:24.950 : en:Chapter 22
01:20:13.100 : en:Chapter 23
01:24:03.038 : en:Chapter 24
01:25:19.281 : en:Chapter 25
01:27:34.040 : en:Chapter 26
01:32:05.520 : en:Chapter 27
01:34:12.480 : en:Chapter 28
فقط للاعضاء المسجلين يمكنهم رؤية الروابط (فقط للاعضاء المسجلين يمكنهم رؤية الروابط)

فقط للاعضاء المسجلين يمكنهم رؤية الروابط (فقط للاعضاء المسجلين يمكنهم رؤية الروابط)فقط للاعضاء المسجلين يمكنهم رؤية الروابط (فقط للاعضاء المسجلين يمكنهم رؤية الروابط)
فقط للاعضاء المسجلين يمكنهم رؤية الروابط (فقط للاعضاء المسجلين يمكنهم رؤية الروابط)فقط للاعضاء المسجلين يمكنهم رؤية الروابط (فقط للاعضاء المسجلين يمكنهم رؤية الروابط)

فقط للاعضاء المسجلين يمكنهم رؤية الروابط (فقط للاعضاء المسجلين يمكنهم رؤية الروابط)

هذه المشاركة تحتوي على محتوى مخفي
:):):)

mohamed mahdy
07-02-2016, 03:57 PM
مشكوووور علي المجهود ^^

Saadbadr23
07-03-2016, 05:20 AM
شكرا :)

dr.zaki
07-26-2016, 01:39 AM
مشكوووور علي المجهود

yasserelgohary
07-27-2016, 10:57 AM
ألف شكر ربنا يبارك في مجهودكم يارب