المساعد الشخصي الرقمي

مشاهدة النسخة كاملة : مدبلج للعربيه :: Toy Story 2 (1999) BRRip { 720p } AC3 2.0 Dual-Audio


Admin
06-17-2016, 08:51 PM
Toy Story 2

مدبلج للعاميه المصريه
صوت اصلى من اسطوانه البلو راى مع الترجمه الاصليه

فقط للاعضاء المسجلين يمكنهم رؤية الروابط (فقط للاعضاء المسجلين يمكنهم رؤية الروابط)

فقط للاعضاء المسجلين يمكنهم رؤية الروابط (فقط للاعضاء المسجلين يمكنهم رؤية الروابط)


Complete name : Toy.Story.2.1999.BRRip.720p.x264.Dual-Audio-by.Rosum.mkv
Format : Matroska
Format version : Version 4 / Version 2
File size : 1.13 GiB
Duration : 1h 32mn
Overall bit rate : 1 755 Kbps
Movie name : Toy Story 2 { 1999 } - Release for "hdfilm-Arabic.blogspot.com"
Encoded date : UTC 2015-12-08 06:30:05
Writing application : mkvmerge v6.3.0 ('You can't stop me!') built on Jun 28 2013 20:09:41
Writing library : libebml v1.3.0 + libmatroska v1.4.0

Video
ID : 1
Format : AVC
Format/Info : Advanced Video Codec
Format profile : High@L4.1
Format settings, CABAC : Yes
Format settings, ReFrames : 4 frames
Codec ID : V_MPEG4/ISO/AVC
Duration : 1h 32mn
Bit rate : 1 336 Kbps
Width : 1 280 pixels
Height : 720 pixels
Display aspect ratio : 16:9
Frame rate mode : Constant
Frame rate : 23.976 fps
Color space : YUV
Chroma subsampling : 4:2:0
Bit depth : 8 bits
Scan type : Progressive
Bits/(Pixel*Frame) : 0.060
Stream size : 883 MiB (76%)
Title : Exclusive Release "Rosum"
Writing library : x264 core 142 r2479 dd79a61
Encoding settings : cabac=1 / ref=4 / deblock=1:1:1 / analyse=0x3:0x113 / me=hex / subme=6 / psy=1 / psy_rd=0.40:0.00 / mixed_ref=1 / me_range=16 / chroma_me=1 / trellis=1 / 8x8dct=1 / cqm=0 / deadzone=21,11 / fast_pskip=1 / chroma_qp_offset=-2 / threads=12 / lookahead_threads=2 / sliced_threads=0 / nr=0 / decimate=1 / interlaced=0 / bluray_compat=0 / constrained_intra=0 / bframes=5 / b_pyramid=2 / b_adapt=1 / b_bias=0 / direct=1 / weightb=1 / open_gop=0 / weightp=1 / keyint=240 / keyint_min=24 / scenecut=40 / intra_refresh=0 / rc_lookahead=30 / rc=crf / mbtree=1 / crf=24.0 / qcomp=0.60 / qpmin=0 / qpmax=69 / qpstep=4 / vbv_maxrate=62500 / vbv_bufsize=78125 / crf_max=0.0 / nal_hrd=none / filler=0 / ip_ratio=1.40 / aq=1:0.60
Language : English
Default : No
Forced : No
Color range : Limited
Color primaries : BT.709
Transfer characteristics : BT.709
Matrix coefficients : BT.709

Audio #1
ID : 2
Format : AC-3
Format/Info : Audio Coding 3
Format profile : Dolby Digital
Mode extension : CM (complete main)
Format settings, Endianness : Big
Codec ID : A_AC3
Duration : 1h 32mn
Bit rate mode : Constant
Bit rate : 192 Kbps
Channel(s) : 2 channels
Channel positions : Front: L R
Sampling rate : 48.0 KHz
Compression mode : Lossy
Delay relative to video : -5ms
Stream size : 127 MiB (11%)
Title : Arabic, Original BluRay, AC3, 2.0 ch , 192 kbps, 48.0 KHz
Language : Arabic
Default : Yes
Forced : No

Audio #2
ID : 3
Format : AC-3
Format/Info : Audio Coding 3
Format profile : Dolby Digital
Mode extension : CM (complete main)
Format settings, Endianness : Big
Codec ID : A_AC3
Duration : 1h 32mn
Bit rate mode : Constant
Bit rate : 192 Kbps
Channel(s) : 2 channels
Channel positions : Front: L R
Sampling rate : 48.0 KHz
Compression mode : Lossy
Delay relative to video : -5ms
Stream size : 127 MiB (11%)
Title : English, Original BluRay, AC3, 2.0 ch , 192 kbps, 48.0 KHz
Language : English
Default : No
Forced : No

Text #1
ID : 4
Format : VobSub
Muxing mode : zlib
Codec ID : S_VOBSUB
Codec ID/Info : Picture based subtitle format used on DVDs
Title : Arabic Original BluRay IDX
Language : Arabic
Default : Yes
Forced : No

Text #2
ID : 5
Format : VobSub
Muxing mode : zlib
Codec ID : S_VOBSUB
Codec ID/Info : Picture based subtitle format used on DVDs
Title : Arabic Original BluRay IDX
Language : Arabic
Default : No
Forced : No

Text #3
ID : 6
Format : VobSub
Muxing mode : zlib
Codec ID : S_VOBSUB
Codec ID/Info : Picture based subtitle format used on DVDs
Title : Arabic Surround Original BluRay IDX
Language : Arabic
Default : No
Forced : No

Text #4
ID : 7
Format : VobSub
Muxing mode : zlib
Codec ID : S_VOBSUB
Codec ID/Info : Picture based subtitle format used on DVDs
Title : English Original BluRay IDX
Language : English
Default : No
Forced : No

Text #5
ID : 8
Format : VobSub
Muxing mode : zlib
Codec ID : S_VOBSUB
Codec ID/Info : Picture based subtitle format used on DVDs
Title : English Original BluRay IDX
Language : English
Default : No
Forced : No

Menu
00:00:00.000 : en:00:00:00.000
00:01:23.583 : en:00:01:23.583
00:04:48.288 : en:00:04:48.288
00:07:35.789 : en:00:07:35.789
00:10:40.932 : en:00:10:40.932
00:11:54.797 : en:00:11:54.797
00:12:47.100 : en:00:12:47.100
00:15:29.929 : en:00:15:29.929
00:18:15.845 : en:00:18:15.845
00:20:17.591 : en:00:20:17.591
00:24:14.036 : en:00:24:14.036
00:25:54.386 : en:00:25:54.386
00:30:32.122 : en:00:30:32.122
00:31:48.448 : en:00:31:48.448
00:32:51.469 : en:00:32:51.469
00:36:44.994 : en:00:36:44.994
00:39:09.138 : en:00:39:09.138
00:39:53.057 : en:00:39:53.057
00:41:06.339 : en:00:41:06.339
00:42:26.210 : en:00:42:26.210
00:44:41.345 : en:00:44:41.345
00:46:58.566 : en:00:46:58.566
00:53:23.951 : en:00:53:23.951
00:56:19.918 : en:00:56:19.918
01:01:10.041 : en:01:01:10.041
01:02:14.272 : en:01:02:14.272
01:04:23.902 : en:01:04:23.902
01:08:00.409 : en:01:08:00.409
01:09:52.188 : en:01:09:52.188
01:12:27.468 : en:01:12:27.468
01:14:58.494 : en:01:14:58.494
01:17:28.310 : en:01:17:28.310
01:19:46.281 : en:01:19:46.281
01:21:35.807 : en:01:21:35.807
01:25:48.977 : en:01:25:48.977
فقط للاعضاء المسجلين يمكنهم رؤية الروابط (فقط للاعضاء المسجلين يمكنهم رؤية الروابط)

فقط للاعضاء المسجلين يمكنهم رؤية الروابط
فقط للاعضاء المسجلين يمكنهم رؤية الروابط
فقط للاعضاء المسجلين يمكنهم رؤية الروابط

فقط للاعضاء المسجلين يمكنهم رؤية الروابط (فقط للاعضاء المسجلين يمكنهم رؤية الروابط)
فقط للاعضاء المسجلين يمكنهم رؤية الروابط (فقط للاعضاء المسجلين يمكنهم رؤية الروابط)

uptobox
فقط للاعضاء المسجلين يمكنهم رؤية الروابط
فقط للاعضاء المسجلين يمكنهم رؤية الروابط
فقط للاعضاء المسجلين يمكنهم رؤية الروابط
فقط للاعضاء المسجلين يمكنهم رؤية الروابط
فقط للاعضاء المسجلين يمكنهم رؤية الروابط
فقط للاعضاء المسجلين يمكنهم رؤية الروابط
فقط للاعضاء المسجلين يمكنهم رؤية الروابط
فقط للاعضاء المسجلين يمكنهم رؤية الروابط

userscloud
فقط للاعضاء المسجلين يمكنهم رؤية الروابط
فقط للاعضاء المسجلين يمكنهم رؤية الروابط
فقط للاعضاء المسجلين يمكنهم رؤية الروابط
فقط للاعضاء المسجلين يمكنهم رؤية الروابط
فقط للاعضاء المسجلين يمكنهم رؤية الروابط
فقط للاعضاء المسجلين يمكنهم رؤية الروابط
فقط للاعضاء المسجلين يمكنهم رؤية الروابط
فقط للاعضاء المسجلين يمكنهم رؤية الروابط

:):):)

Asem Ahmed
06-23-2016, 01:22 AM
روعععععة 2

KOUKI
08-04-2016, 04:11 PM
ربنا يخليك لينا

midokaial
08-07-2016, 08:09 PM
فقط للاعضاء المسجلين يمكنهم رؤية الروابط

AbuYousef
08-13-2016, 02:09 AM
تسلم ايدك

shoulah
09-21-2016, 01:32 PM
اصلي يامعلم

Hilaly
02-04-2017, 09:33 AM
روووووووووووووووووووووعة