المساعد الشخصي الرقمي

مشاهدة النسخة كاملة : مترجم للعربيه :: Logan 2017 BluRay { 1080p / 720p } DTS 5.1


Rosum
11-08-2017, 09:13 PM
Logan

مترجم للعربيه
ترجمه اصليه من اسطوانه البلو راى

فقط للاعضاء المسجلين يمكنهم رؤية الروابط (فقط للاعضاء المسجلين يمكنهم رؤية الروابط)
فقط للاعضاء المسجلين يمكنهم رؤية الروابط (فقط للاعضاء المسجلين يمكنهم رؤية الروابط)
Complete name : Logan.(2017).BluRay.1080p.DTS.5.1.Subbed.Arabic.x2 64-by.Rosum.mkv
Format : Matroska
Format version : Version 4 / Version 2
File size : 11.1 GiB
Duration : 2h 17mn
Overall bit rate : 11.5 Mbps
Movie name : Logan { 2017 } - Release for "Rosum@fb.com/hdfilm.arabic"
Encoded date : UTC 2017-11-08 13:03:18
Writing application : mkvmerge v6.3.0 ('You can't stop me!') built on Jun 28 2013 20:09:41
Writing library : libebml v1.3.0 + libmatroska v1.4.0

Video
ID : 1
Format : AVC
Format/Info : Advanced Video Codec
Format profile : High@L4.1
Format settings, CABAC : Yes
Format settings, ReFrames : 4 frames
Codec ID : V_MPEG4/ISO/AVC
Bit rate : 9 799 Kbps
Width : 1 920 pixels
Height : 1 080 pixels
Display aspect ratio : 16:9
Frame rate mode : Variable
Color space : YUV
Chroma subsampling : 4:2:0
Bit depth : 8 bits
Scan type : Progressive
Title : Exclusive Release "Rosum" HD4arab.com
Writing library : x264 core 142 r2479 dd79a61
Encoding settings : cabac=1 / ref=4 / deblock=1:1:1 / analyse=0x3:0x113 / me=hex / subme=6 / psy=1 / psy_rd=0.40:0.00 / mixed_ref=1 / me_range=16 / chroma_me=1 / trellis=1 / 8x8dct=1 / cqm=0 / deadzone=21,11 / fast_pskip=1 / chroma_qp_offset=-2 / threads=12 / lookahead_threads=2 / sliced_threads=0 / nr=0 / decimate=1 / interlaced=0 / bluray_compat=0 / constrained_intra=0 / bframes=5 / b_pyramid=2 / b_adapt=1 / b_bias=0 / direct=1 / weightb=1 / open_gop=0 / weightp=1 / keyint=240 / keyint_min=24 / scenecut=40 / intra_refresh=0 / rc_lookahead=30 / rc=crf / mbtree=1 / crf=15.0 / qcomp=0.60 / qpmin=0 / qpmax=69 / qpstep=4 / vbv_maxrate=62500 / vbv_bufsize=78125 / crf_max=0.0 / nal_hrd=none / filler=0 / ip_ratio=1.40 / aq=1:0.60
Language : English
Default : No
Forced : No
Color primaries : BT.709
Transfer characteristics : BT.709
Matrix coefficients : BT.709

Audio
ID : 2
Format : DTS
Format/Info : Digital Theater Systems
Codec ID : A_DTS
Duration : 2h 17mn
Bit rate mode : Constant
Bit rate : 1 510 Kbps
Channel(s) : 6 channels
Channel positions : Front: L C R, Side: L R, LFE
Sampling rate : 48.0 KHz
Bit depth : 24 bits
Compression mode : Lossy
Stream size : 1.45 GiB (13%)
Title : English Master, Original BluRay, DTS, 5.1 ch, 1509 Kbps, 48.0 KHz
Language : English
Default : Yes
Forced : No

Text #1
ID : 3
Format : PGS
Muxing mode : zlib
Codec ID : S_HDMV/PGS
Codec ID/Info : The same subtitle format used on BDs/HD-DVDs
Title : Arabic Original BluRay PGS
Language : Arabic
Default : Yes
Forced : No

Text #2
ID : 4
Format : PGS
Muxing mode : zlib
Codec ID : S_HDMV/PGS
Codec ID/Info : The same subtitle format used on BDs/HD-DVDs
Title : English Original BluRay PGS
Language : English
Default : No
Forced : No

Menu
00:00:00.000 : :HD4arab.com / Rosum Movies / BluRay 3D Arabic
00:05:35.226 : :HD4arab.com / Rosum Movies / BluRay 3D Arabic
00:09:18.658 : :HD4arab.com / Rosum Movies / BluRay 3D Arabic
00:11:41.259 : :HD4arab.com / Rosum Movies / BluRay 3D Arabic
00:16:23.332 : :HD4arab.com / Rosum Movies / BluRay 3D Arabic
00:20:11.769 : :HD4arab.com / Rosum Movies / BluRay 3D Arabic
00:24:26.815 : :HD4arab.com / Rosum Movies / BluRay 3D Arabic
00:26:12.004 : :HD4arab.com / Rosum Movies / BluRay 3D Arabic
00:30:13.412 : :HD4arab.com / Rosum Movies / BluRay 3D Arabic
00:31:59.226 : :HD4arab.com / Rosum Movies / BluRay 3D Arabic
00:34:56.986 : :HD4arab.com / Rosum Movies / BluRay 3D Arabic
00:39:53.533 : :HD4arab.com / Rosum Movies / BluRay 3D Arabic
00:42:55.673 : :HD4arab.com / Rosum Movies / BluRay 3D Arabic
00:45:03.926 : :HD4arab.com / Rosum Movies / BluRay 3D Arabic
00:47:53.512 : :HD4arab.com / Rosum Movies / BluRay 3D Arabic
00:49:39.660 : :HD4arab.com / Rosum Movies / BluRay 3D Arabic
00:52:14.523 : :HD4arab.com / Rosum Movies / BluRay 3D Arabic
00:54:30.617 : :HD4arab.com / Rosum Movies / BluRay 3D Arabic
00:57:44.311 : :HD4arab.com / Rosum Movies / BluRay 3D Arabic
01:00:10.498 : :HD4arab.com / Rosum Movies / BluRay 3D Arabic
01:03:53.930 : :HD4arab.com / Rosum Movies / BluRay 3D Arabic
01:06:55.612 : :HD4arab.com / Rosum Movies / BluRay 3D Arabic
01:09:54.874 : :HD4arab.com / Rosum Movies / BluRay 3D Arabic
01:13:15.992 : :HD4arab.com / Rosum Movies / BluRay 3D Arabic
01:18:43.694 : :HD4arab.com / Rosum Movies / BluRay 3D Arabic
01:21:51.006 : :HD4arab.com / Rosum Movies / BluRay 3D Arabic
01:25:52.289 : :HD4arab.com / Rosum Movies / BluRay 3D Arabic
01:28:38.914 : :HD4arab.com / Rosum Movies / BluRay 3D Arabic
01:32:41.531 : :HD4arab.com / Rosum Movies / BluRay 3D Arabic
01:35:29.824 : :HD4arab.com / Rosum Movies / BluRay 3D Arabic
01:41:03.532 : :HD4arab.com / Rosum Movies / BluRay 3D Arabic
01:43:39.980 : :HD4arab.com / Rosum Movies / BluRay 3D Arabic
01:49:39.089 : :HD4arab.com / Rosum Movies / BluRay 3D Arabic
01:54:20.662 : :HD4arab.com / Rosum Movies / BluRay 3D Arabic
01:57:00.530 : :HD4arab.com / Rosum Movies / BluRay 3D Arabic
01:59:20.503 : :HD4arab.com / Rosum Movies / BluRay 3D Arabic
02:01:14.534 : :HD4arab.com / Rosum Movies / BluRay 3D Arabic
02:05:09.727 : :HD4arab.com / Rosum Movies / BluRay 3D Arabic
02:06:40.651 : :HD4arab.com / Rosum Movies / BluRay 3D Arabic
02:11:07.960 : :HD4arab.com / Rosum Movies / BluRay 3D Arabic
فقط للاعضاء المسجلين يمكنهم رؤية الروابط (فقط للاعضاء المسجلين يمكنهم رؤية الروابط)
فقط للاعضاء المسجلين يمكنهم رؤية الروابط (فقط للاعضاء المسجلين يمكنهم رؤية الروابط)فقط للاعضاء المسجلين يمكنهم رؤية الروابط (فقط للاعضاء المسجلين يمكنهم رؤية الروابط)
فقط للاعضاء المسجلين يمكنهم رؤية الروابط (فقط للاعضاء المسجلين يمكنهم رؤية الروابط)فقط للاعضاء المسجلين يمكنهم رؤية الروابط (فقط للاعضاء المسجلين يمكنهم رؤية الروابط)
فقط للاعضاء المسجلين يمكنهم رؤية الروابط (فقط للاعضاء المسجلين يمكنهم رؤية الروابط)
فقط للاعضاء المسجلين يمكنهم رؤية الروابط (فقط للاعضاء المسجلين يمكنهم رؤية الروابط)
فقط للاعضاء المسجلين يمكنهم رؤية الروابط (فقط للاعضاء المسجلين يمكنهم رؤية الروابط)
Complete name : Logan.(2017).BluRay.720p.AC3.5.1.Subbed.Arabic.x26 4-by.Rosum.mkv
Format : Matroska
Format version : Version 4 / Version 2
File size : 2.54 GiB
Duration : 2h 17mn
Overall bit rate : 2 645 Kbps
Movie name : Logan { 2017 } - Release for "Rosum@fb.com/hdfilm.arabic"
Encoded date : UTC 2017-11-08 13:54:48
Writing application : mkvmerge v6.3.0 ('You can't stop me!') built on Jun 28 2013 20:09:41
Writing library : libebml v1.3.0 + libmatroska v1.4.0

Video
ID : 1
Format : AVC
Format/Info : Advanced Video Codec
Format profile : High@L4.1
Format settings, CABAC : Yes
Format settings, ReFrames : 4 frames
Codec ID : V_MPEG4/ISO/AVC
Bit rate : 1 953 Kbps
Width : 1 280 pixels
Height : 720 pixels
Display aspect ratio : 16:9
Frame rate mode : Variable
Color space : YUV
Chroma subsampling : 4:2:0
Bit depth : 8 bits
Scan type : Progressive
Title : Exclusive Release "Rosum" HD4arab.com
Writing library : x264 core 142 r2479 dd79a61
Encoding settings : cabac=1 / ref=4 / deblock=1:1:1 / analyse=0x3:0x113 / me=hex / subme=6 / psy=1 / psy_rd=0.40:0.00 / mixed_ref=1 / me_range=16 / chroma_me=1 / trellis=1 / 8x8dct=1 / cqm=0 / deadzone=21,11 / fast_pskip=1 / chroma_qp_offset=-2 / threads=12 / lookahead_threads=2 / sliced_threads=0 / nr=0 / decimate=1 / interlaced=0 / bluray_compat=0 / constrained_intra=0 / bframes=5 / b_pyramid=2 / b_adapt=1 / b_bias=0 / direct=1 / weightb=1 / open_gop=0 / weightp=1 / keyint=240 / keyint_min=24 / scenecut=40 / intra_refresh=0 / rc_lookahead=30 / rc=crf / mbtree=1 / crf=19.0 / qcomp=0.60 / qpmin=0 / qpmax=69 / qpstep=4 / vbv_maxrate=62500 / vbv_bufsize=78125 / crf_max=0.0 / nal_hrd=none / filler=0 / ip_ratio=1.40 / aq=1:0.60
Language : English
Default : No
Forced : No
Color primaries : BT.709
Transfer characteristics : BT.709
Matrix coefficients : BT.709

Audio
ID : 2
Format : AC-3
Format/Info : Audio Coding 3
Mode extension : CM (complete main)
Format settings, Endianness : Big
Codec ID : A_AC3
Duration : 2h 17mn
Bit rate mode : Constant
Bit rate : 640 Kbps
Channel(s) : 6 channels
Channel positions : Front: L C R, Side: L R, LFE
Sampling rate : 48.0 KHz
Bit depth : 16 bits
Compression mode : Lossy
Delay relative to video : -5ms
Stream size : 629 MiB (24%)
Title : English, Original BluRay, AC3, 5.1 ch, 640 kbps, 48.0 KHz
Language : English
Default : Yes
Forced : No

Text #1
ID : 3
Format : PGS
Muxing mode : zlib
Codec ID : S_HDMV/PGS
Codec ID/Info : The same subtitle format used on BDs/HD-DVDs
Title : Arabic Original BluRay PGS
Language : Arabic
Default : Yes
Forced : No

Text #2
ID : 4
Format : PGS
Muxing mode : zlib
Codec ID : S_HDMV/PGS
Codec ID/Info : The same subtitle format used on BDs/HD-DVDs
Title : English Original BluRay PGS
Language : English
Default : No
Forced : No

Menu
00:00:00.000 : :HD4arab.com / Rosum Movies / BluRay 3D Arabic
00:05:35.226 : :HD4arab.com / Rosum Movies / BluRay 3D Arabic
00:09:18.658 : :HD4arab.com / Rosum Movies / BluRay 3D Arabic
00:11:41.259 : :HD4arab.com / Rosum Movies / BluRay 3D Arabic
00:16:23.332 : :HD4arab.com / Rosum Movies / BluRay 3D Arabic
00:20:11.769 : :HD4arab.com / Rosum Movies / BluRay 3D Arabic
00:24:26.815 : :HD4arab.com / Rosum Movies / BluRay 3D Arabic
00:26:12.004 : :HD4arab.com / Rosum Movies / BluRay 3D Arabic
00:30:13.412 : :HD4arab.com / Rosum Movies / BluRay 3D Arabic
00:31:59.226 : :HD4arab.com / Rosum Movies / BluRay 3D Arabic
00:34:56.986 : :HD4arab.com / Rosum Movies / BluRay 3D Arabic
00:39:53.533 : :HD4arab.com / Rosum Movies / BluRay 3D Arabic
00:42:55.673 : :HD4arab.com / Rosum Movies / BluRay 3D Arabic
00:45:03.926 : :HD4arab.com / Rosum Movies / BluRay 3D Arabic
00:47:53.512 : :HD4arab.com / Rosum Movies / BluRay 3D Arabic
00:49:39.660 : :HD4arab.com / Rosum Movies / BluRay 3D Arabic
00:52:14.523 : :HD4arab.com / Rosum Movies / BluRay 3D Arabic
00:54:30.617 : :HD4arab.com / Rosum Movies / BluRay 3D Arabic
00:57:44.311 : :HD4arab.com / Rosum Movies / BluRay 3D Arabic
01:00:10.498 : :HD4arab.com / Rosum Movies / BluRay 3D Arabic
01:03:53.930 : :HD4arab.com / Rosum Movies / BluRay 3D Arabic
01:06:55.612 : :HD4arab.com / Rosum Movies / BluRay 3D Arabic
01:09:54.874 : :HD4arab.com / Rosum Movies / BluRay 3D Arabic
01:13:15.992 : :HD4arab.com / Rosum Movies / BluRay 3D Arabic
01:18:43.694 : :HD4arab.com / Rosum Movies / BluRay 3D Arabic
01:21:51.006 : :HD4arab.com / Rosum Movies / BluRay 3D Arabic
01:25:52.289 : :HD4arab.com / Rosum Movies / BluRay 3D Arabic
01:28:38.914 : :HD4arab.com / Rosum Movies / BluRay 3D Arabic
01:32:41.531 : :HD4arab.com / Rosum Movies / BluRay 3D Arabic
01:35:29.824 : :HD4arab.com / Rosum Movies / BluRay 3D Arabic
01:41:03.532 : :HD4arab.com / Rosum Movies / BluRay 3D Arabic
01:43:39.980 : :HD4arab.com / Rosum Movies / BluRay 3D Arabic
01:49:39.089 : :HD4arab.com / Rosum Movies / BluRay 3D Arabic
01:54:20.662 : :HD4arab.com / Rosum Movies / BluRay 3D Arabic
01:57:00.530 : :HD4arab.com / Rosum Movies / BluRay 3D Arabic
01:59:20.503 : :HD4arab.com / Rosum Movies / BluRay 3D Arabic
02:01:14.534 : :HD4arab.com / Rosum Movies / BluRay 3D Arabic
02:05:09.727 : :HD4arab.com / Rosum Movies / BluRay 3D Arabic
02:06:40.651 : :HD4arab.com / Rosum Movies / BluRay 3D Arabic
02:11:07.960 : :HD4arab.com / Rosum Movies / BluRay 3D Arabic
فقط للاعضاء المسجلين يمكنهم رؤية الروابط (فقط للاعضاء المسجلين يمكنهم رؤية الروابط)
فقط للاعضاء المسجلين يمكنهم رؤية الروابط (فقط للاعضاء المسجلين يمكنهم رؤية الروابط)فقط للاعضاء المسجلين يمكنهم رؤية الروابط (فقط للاعضاء المسجلين يمكنهم رؤية الروابط)
فقط للاعضاء المسجلين يمكنهم رؤية الروابط (فقط للاعضاء المسجلين يمكنهم رؤية الروابط)فقط للاعضاء المسجلين يمكنهم رؤية الروابط (فقط للاعضاء المسجلين يمكنهم رؤية الروابط)
فقط للاعضاء المسجلين يمكنهم رؤية الروابط (فقط للاعضاء المسجلين يمكنهم رؤية الروابط)

فقط للاعضاء المسجلين يمكنهم رؤية الروابط (فقط للاعضاء المسجلين يمكنهم رؤية الروابط)
فقط للاعضاء المسجلين يمكنهم رؤية الروابط (فقط للاعضاء المسجلين يمكنهم رؤية الروابط)

openload
فقط للاعضاء المسجلين يمكنهم رؤية الروابط
فقط للاعضاء المسجلين يمكنهم رؤية الروابط
فقط للاعضاء المسجلين يمكنهم رؤية الروابط
فقط للاعضاء المسجلين يمكنهم رؤية الروابط
فقط للاعضاء المسجلين يمكنهم رؤية الروابط
فقط للاعضاء المسجلين يمكنهم رؤية الروابط
فقط للاعضاء المسجلين يمكنهم رؤية الروابط
فقط للاعضاء المسجلين يمكنهم رؤية الروابط
فقط للاعضاء المسجلين يمكنهم رؤية الروابط
فقط للاعضاء المسجلين يمكنهم رؤية الروابط
فقط للاعضاء المسجلين يمكنهم رؤية الروابط
فقط للاعضاء المسجلين يمكنهم رؤية الروابط
[/URL]
فقط للاعضاء المسجلين يمكنهم رؤية الروابط (فقط للاعضاء المسجلين يمكنهم رؤية الروابط)

openload
[URL]فقط للاعضاء المسجلين يمكنهم رؤية الروابط
فقط للاعضاء المسجلين يمكنهم رؤية الروابط
فقط للاعضاء المسجلين يمكنهم رؤية الروابط

:)
:):):)