المساعد الشخصي الرقمي

مشاهدة النسخة كاملة : مدبلج للعربيه :: The Emoji Movie 2017 BluRay { 1080p / 720p } AC3 2.0 Dual-Audio


Rosum
11-02-2017, 03:28 AM
The Emoji Movie

مدبلج للعربيه
دبلجه اصليه من اسطوانه البلو راى مع الترجمه الاصليه

فقط للاعضاء المسجلين يمكنهم رؤية الروابط (فقط للاعضاء المسجلين يمكنهم رؤية الروابط)

فقط للاعضاء المسجلين يمكنهم رؤية الروابط (فقط للاعضاء المسجلين يمكنهم رؤية الروابط)

Complete name : The.Emoji.Movie.(2017).BluRay.1080p.x264.Dual-Audio-by.Rosum.mkv
Format : Matroska
Format version : Version 4 / Version 2
File size : 5.43 GiB
Duration : 1h 26mn
Overall bit rate mode : Variable
Overall bit rate : 8 994 Kbps
Movie name : The Emoji Movie { 2017 } - Release for "Rosum@fb.com/hdfilm.arabic"
Encoded date : UTC 2017-12-04 13:13:02
Writing application : mkvmerge v6.3.0 ('You can't stop me!') built on Jun 28 2013 20:09:41
Writing library : libebml v1.3.0 + libmatroska v1.4.0
Attachment : Yes

Video
ID : 1
Format : AVC
Format/Info : Advanced Video Codec
Format profile : High@L4.1
Format settings, CABAC : Yes
Format settings, ReFrames : 4 frames
Codec ID : V_MPEG4/ISO/AVC
Duration : 1h 26mn
Bit rate : 6 291 Kbps
Width : 1 920 pixels
Height : 1 080 pixels
Display aspect ratio : 16:9
Frame rate mode : Constant
Frame rate : 23.976 fps
Color space : YUV
Chroma subsampling : 4:2:0
Bit depth : 8 bits
Scan type : Progressive
Bits/(Pixel*Frame) : 0.127
Stream size : 3.80 GiB (70%)
Title : Exclusive Release "Rosum" HD4arab.com
Writing library : x264 core 142 r2479 dd79a61
Encoding settings : cabac=1 / ref=4 / deblock=1:1:1 / analyse=0x3:0x113 / me=hex / subme=6 / psy=1 / psy_rd=0.40:0.00 / mixed_ref=1 / me_range=16 / chroma_me=1 / trellis=1 / 8x8dct=1 / cqm=0 / deadzone=21,11 / fast_pskip=1 / chroma_qp_offset=-2 / threads=12 / lookahead_threads=2 / sliced_threads=0 / nr=0 / decimate=1 / interlaced=0 / bluray_compat=0 / constrained_intra=0 / bframes=5 / b_pyramid=2 / b_adapt=1 / b_bias=0 / direct=1 / weightb=1 / open_gop=0 / weightp=1 / keyint=240 / keyint_min=24 / scenecut=40 / intra_refresh=0 / rc_lookahead=30 / rc=crf / mbtree=1 / crf=16.0 / qcomp=0.60 / qpmin=0 / qpmax=69 / qpstep=4 / vbv_maxrate=62500 / vbv_bufsize=78125 / crf_max=0.0 / nal_hrd=none / filler=0 / ip_ratio=1.40 / aq=1:0.60
Language : English
Default : No
Forced : No
Color primaries : BT.709
Transfer characteristics : BT.709
Matrix coefficients : BT.709

Audio #1
ID : 2
Format : AC-3
Format/Info : Audio Coding 3
Mode extension : CM (complete main)
Format settings, Endianness : Big
Codec ID : A_AC3
Duration : 1h 26mn
Bit rate mode : Constant
Bit rate : 448 Kbps
Channel(s) : 2 channels
Channel positions : Front: L R
Sampling rate : 48.0 KHz
Bit depth : 16 bits
Compression mode : Lossy
Delay relative to video : -83ms
Stream size : 277 MiB (5%)
Title : Arabic, Original BluRay, AC3, 2.0 ch, 448 kbps, 48.0 KHz
Language : Arabic
Default : Yes
Forced : No

Audio #2
ID : 3
Format : DTS
Format/Info : Digital Theater Systems
Format profile : MA / Core
Codec ID : A_DTS
Duration : 1h 26mn
Bit rate mode : Variable
Bit rate : 2 077 Kbps / 1 510 Kbps
Channel(s) : 6 channels
Channel positions : Front: L C R, Side: L R, LFE
Sampling rate : 48.0 KHz
Bit depth : 16 bits
Compression mode : Lossless / Lossy
Title : English Master, Original BluRay, DTS, 5.1 ch, 1509 Kbps, 48.0 KHz
Language : English
Default : No
Forced : No

Text #1
ID : 4
Format : PGS
Muxing mode : zlib
Codec ID : S_HDMV/PGS
Codec ID/Info : The same subtitle format used on BDs/HD-DVDs
Title : Arabic Original BluRay PGS
Language : Arabic
Default : No
Forced : No

Text #2
ID : 5
Format : PGS
Muxing mode : zlib
Codec ID : S_HDMV/PGS
Codec ID/Info : The same subtitle format used on BDs/HD-DVDs
Title : English Original BluRay PGS
Language : English
Default : No
Forced : No

Menu
00:00:00.000 : :HD4arab.com / Rosum Movies / BluRay 3D Arabic
00:05:12.562 : :HD4arab.com / Rosum Movies / BluRay 3D Arabic
00:11:38.656 : :HD4arab.com / Rosum Movies / BluRay 3D Arabic
00:15:49.490 : :HD4arab.com / Rosum Movies / BluRay 3D Arabic
00:22:24.217 : :HD4arab.com / Rosum Movies / BluRay 3D Arabic
00:26:48.440 : :HD4arab.com / Rosum Movies / BluRay 3D Arabic
00:32:11.346 : :HD4arab.com / Rosum Movies / BluRay 3D Arabic
00:39:15.353 : :HD4arab.com / Rosum Movies / BluRay 3D Arabic
00:44:16.612 : :HD4arab.com / Rosum Movies / BluRay 3D Arabic
00:48:42.920 : :HD4arab.com / Rosum Movies / BluRay 3D Arabic
00:53:07.476 : :HD4arab.com / Rosum Movies / BluRay 3D Arabic
00:58:19.454 : :HD4arab.com / Rosum Movies / BluRay 3D Arabic
01:02:35.835 : :HD4arab.com / Rosum Movies / BluRay 3D Arabic
01:07:18.868 : :HD4arab.com / Rosum Movies / BluRay 3D Arabic
01:11:54.977 : :HD4arab.com / Rosum Movies / BluRay 3D Arabic
01:16:05.561 : :HD4arab.com / Rosum Movies / BluRay 3D Arabic
فقط للاعضاء المسجلين يمكنهم رؤية الروابط (فقط للاعضاء المسجلين يمكنهم رؤية الروابط)

فقط للاعضاء المسجلين يمكنهم رؤية الروابط (فقط للاعضاء المسجلين يمكنهم رؤية الروابط)فقط للاعضاء المسجلين يمكنهم رؤية الروابط (فقط للاعضاء المسجلين يمكنهم رؤية الروابط)
فقط للاعضاء المسجلين يمكنهم رؤية الروابط (فقط للاعضاء المسجلين يمكنهم رؤية الروابط)فقط للاعضاء المسجلين يمكنهم رؤية الروابط (فقط للاعضاء المسجلين يمكنهم رؤية الروابط)
فقط للاعضاء المسجلين يمكنهم رؤية الروابط (فقط للاعضاء المسجلين يمكنهم رؤية الروابط)فقط للاعضاء المسجلين يمكنهم رؤية الروابط (فقط للاعضاء المسجلين يمكنهم رؤية الروابط)
فقط للاعضاء المسجلين يمكنهم رؤية الروابط (فقط للاعضاء المسجلين يمكنهم رؤية الروابط)

فقط للاعضاء المسجلين يمكنهم رؤية الروابط (فقط للاعضاء المسجلين يمكنهم رؤية الروابط)

فقط للاعضاء المسجلين يمكنهم رؤية الروابط (فقط للاعضاء المسجلين يمكنهم رؤية الروابط)

Complete name : The.Emoji.Movie.(2017).BluRay.720p.x264.Dual-Audio-by.Rosum.mkv
Format : Matroska
Format version : Version 4 / Version 2
File size : 2.72 GiB
Duration : 1h 26mn
Overall bit rate : 4 516 Kbps
Movie name : The Emoji Movie { 2017 } - Release for "Rosum@fb.com/hdfilm.arabic"
Encoded date : UTC 2017-12-04 13:16:16
Writing application : mkvmerge v6.3.0 ('You can't stop me!') built on Jun 28 2013 20:09:41
Writing library : libebml v1.3.0 + libmatroska v1.4.0
Attachment : Yes

Video
ID : 1
Format : AVC
Format/Info : Advanced Video Codec
Format profile : High@L4.1
Format settings, CABAC : Yes
Format settings, ReFrames : 4 frames
Codec ID : V_MPEG4/ISO/AVC
Duration : 1h 26mn
Bit rate : 3 338 Kbps
Width : 1 280 pixels
Height : 720 pixels
Display aspect ratio : 16:9
Frame rate mode : Constant
Frame rate : 23.976 fps
Color space : YUV
Chroma subsampling : 4:2:0
Bit depth : 8 bits
Scan type : Progressive
Bits/(Pixel*Frame) : 0.151
Stream size : 2.01 GiB (74%)
Title : Exclusive Release "Rosum" HD4arab.com
Writing library : x264 core 142 r2479 dd79a61
Encoding settings : cabac=1 / ref=4 / deblock=1:1:1 / analyse=0x3:0x113 / me=hex / subme=6 / psy=1 / psy_rd=0.40:0.00 / mixed_ref=1 / me_range=16 / chroma_me=1 / trellis=1 / 8x8dct=1 / cqm=0 / deadzone=21,11 / fast_pskip=1 / chroma_qp_offset=-2 / threads=12 / lookahead_threads=2 / sliced_threads=0 / nr=0 / decimate=1 / interlaced=0 / bluray_compat=0 / constrained_intra=0 / bframes=5 / b_pyramid=2 / b_adapt=1 / b_bias=0 / direct=1 / weightb=1 / open_gop=0 / weightp=1 / keyint=240 / keyint_min=24 / scenecut=40 / intra_refresh=0 / rc_lookahead=30 / rc=crf / mbtree=1 / crf=16.0 / qcomp=0.60 / qpmin=0 / qpmax=69 / qpstep=4 / vbv_maxrate=62500 / vbv_bufsize=78125 / crf_max=0.0 / nal_hrd=none / filler=0 / ip_ratio=1.40 / aq=1:0.60
Language : English
Default : No
Forced : No
Color primaries : BT.709
Transfer characteristics : BT.709
Matrix coefficients : BT.709

Audio #1
ID : 2
Format : AC-3
Format/Info : Audio Coding 3
Mode extension : CM (complete main)
Format settings, Endianness : Big
Codec ID : A_AC3
Duration : 1h 26mn
Bit rate mode : Constant
Bit rate : 448 Kbps
Channel(s) : 2 channels
Channel positions : Front: L R
Sampling rate : 48.0 KHz
Bit depth : 16 bits
Compression mode : Lossy
Delay relative to video : -83ms
Stream size : 277 MiB (10%)
Title : Arabic, Original BluRay, AC3, 2.0 ch, 448 kbps, 48.0 KHz
Language : Arabic
Default : Yes
Forced : No

Audio #2
ID : 3
Format : AC-3
Format/Info : Audio Coding 3
Mode extension : CM (complete main)
Format settings, Endianness : Big
Codec ID : A_AC3
Duration : 1h 26mn
Bit rate mode : Constant
Bit rate : 640 Kbps
Channel(s) : 6 channels
Channel positions : Front: L C R, Side: L R, LFE
Sampling rate : 48.0 KHz
Bit depth : 16 bits
Compression mode : Lossy
Delay relative to video : -5ms
Stream size : 395 MiB (14%)
Title : English, Original BluRay, AC3, 5.1 ch, 640 kbps, 48.0 KHz
Language : English
Default : No
Forced : No

Text #1
ID : 4
Format : PGS
Muxing mode : zlib
Codec ID : S_HDMV/PGS
Codec ID/Info : The same subtitle format used on BDs/HD-DVDs
Title : Arabic Original BluRay PGS
Language : Arabic
Default : No
Forced : No

Text #2
ID : 5
Format : PGS
Muxing mode : zlib
Codec ID : S_HDMV/PGS
Codec ID/Info : The same subtitle format used on BDs/HD-DVDs
Title : English Original BluRay PGS
Language : English
Default : No
Forced : No

Menu
00:00:00.000 : :HD4arab.com / Rosum Movies / BluRay 3D Arabic
00:05:12.562 : :HD4arab.com / Rosum Movies / BluRay 3D Arabic
00:11:38.656 : :HD4arab.com / Rosum Movies / BluRay 3D Arabic
00:15:49.490 : :HD4arab.com / Rosum Movies / BluRay 3D Arabic
00:22:24.217 : :HD4arab.com / Rosum Movies / BluRay 3D Arabic
00:26:48.440 : :HD4arab.com / Rosum Movies / BluRay 3D Arabic
00:32:11.346 : :HD4arab.com / Rosum Movies / BluRay 3D Arabic
00:39:15.353 : :HD4arab.com / Rosum Movies / BluRay 3D Arabic
00:44:16.612 : :HD4arab.com / Rosum Movies / BluRay 3D Arabic
00:48:42.920 : :HD4arab.com / Rosum Movies / BluRay 3D Arabic
00:53:07.476 : :HD4arab.com / Rosum Movies / BluRay 3D Arabic
00:58:19.454 : :HD4arab.com / Rosum Movies / BluRay 3D Arabic
01:02:35.835 : :HD4arab.com / Rosum Movies / BluRay 3D Arabic
01:07:18.868 : :HD4arab.com / Rosum Movies / BluRay 3D Arabic
01:11:54.977 : :HD4arab.com / Rosum Movies / BluRay 3D Arabic
01:16:05.561 : :HD4arab.com / Rosum Movies / BluRay 3D Arabic
فقط للاعضاء المسجلين يمكنهم رؤية الروابط (فقط للاعضاء المسجلين يمكنهم رؤية الروابط)

فقط للاعضاء المسجلين يمكنهم رؤية الروابط (فقط للاعضاء المسجلين يمكنهم رؤية الروابط)فقط للاعضاء المسجلين يمكنهم رؤية الروابط (فقط للاعضاء المسجلين يمكنهم رؤية الروابط)
فقط للاعضاء المسجلين يمكنهم رؤية الروابط (فقط للاعضاء المسجلين يمكنهم رؤية الروابط)فقط للاعضاء المسجلين يمكنهم رؤية الروابط (فقط للاعضاء المسجلين يمكنهم رؤية الروابط)
فقط للاعضاء المسجلين يمكنهم رؤية الروابط (فقط للاعضاء المسجلين يمكنهم رؤية الروابط)فقط للاعضاء المسجلين يمكنهم رؤية الروابط (فقط للاعضاء المسجلين يمكنهم رؤية الروابط)
فقط للاعضاء المسجلين يمكنهم رؤية الروابط (فقط للاعضاء المسجلين يمكنهم رؤية الروابط)

فقط للاعضاء المسجلين يمكنهم رؤية الروابط (فقط للاعضاء المسجلين يمكنهم رؤية الروابط)
فقط للاعضاء المسجلين يمكنهم رؤية الروابط (فقط للاعضاء المسجلين يمكنهم رؤية الروابط)
uptobox
فقط للاعضاء المسجلين يمكنهم رؤية الروابط
فقط للاعضاء المسجلين يمكنهم رؤية الروابط
فقط للاعضاء المسجلين يمكنهم رؤية الروابط
فقط للاعضاء المسجلين يمكنهم رؤية الروابط
فقط للاعضاء المسجلين يمكنهم رؤية الروابط
فقط للاعضاء المسجلين يمكنهم رؤية الروابط

فقط للاعضاء المسجلين يمكنهم رؤية الروابط (فقط للاعضاء المسجلين يمكنهم رؤية الروابط)
uptobox
فقط للاعضاء المسجلين يمكنهم رؤية الروابط
فقط للاعضاء المسجلين يمكنهم رؤية الروابط
فقط للاعضاء المسجلين يمكنهم رؤية الروابط

:):):)

mansy
11-02-2017, 12:36 PM
الفيلم المنتظر ... مجهود محترم من ملك الابداع والحصريات

Lions
11-03-2017, 09:51 AM
شكراً لمحمود و شكراً لك أيها المنهمر المعطاء

Omar Katat
11-03-2017, 10:34 PM
الف شكر يا ريس

Basel Alkhatib
11-03-2017, 11:37 PM
الله يعطيك ألف عافية
شكرا يا برنس

brak88
11-06-2017, 12:04 AM
بطل والله وشكرا للاخ محمود

faisal454
11-10-2017, 03:46 PM
مششككوورر

pingoman
11-15-2017, 07:46 PM
شكرا جزيلا لك على المجهود المبذول وشكرا للأخ محمود على الدبلجة

sasa2010
11-16-2017, 03:34 AM
تسلم ياغالي بارك الله فيك

farafero21
12-01-2017, 08:36 PM
thanks a lot Mr. Ibrahem and I wish you a happy new year and all your dreams comes true

shamiam
12-21-2017, 11:08 PM
ألف شكر

prince1399
01-06-2018, 01:53 PM
تسلم الايادي ياكبير